скачать торрент трекер Friends
 
 Главная  •  Торренты  •  Новые релизы  •  Форум  •   •  Персоны кино  •  Правила  •  ЧаВо

Язык интерфейса
Язык интерфейса:


Привет, Гость
[15] из [15]
Введите Логин:
Введите Пароль:
Регистрация
Восстановить Пароль

Линки
АнекдотыБанкоматВсе теги / меткиДополнительные услугиТехподдержка

Главное Меню
 Главная Торренты Релизы за сегодня Персоны кино Запросы / Предложения (3) Правила ЧаВо Проверка BB кодов Топ 10 Архив новостей Прошлые опросы Форматы файлов Группы Последние комментарии Техподдержка

:: Детали раздачи
Торрент раздача является мультитрекерной — учтите, количество раздающих не будет совпадать с количеством участников на сайте (скачивание на клиентской стороне зависит от настроек uTorrent клиент программы, настройки -> Включить DHT, Обмен пирами и Поиск лок-х пиров).
Если висит надпись, пиры по нулям - не бойтесь, возможность скачать повторно торрент раздачу - есть. Попробуйте, в случае отказа - прокоментируйте или нажмите на "Позвать скачавших".

Ветер в лицо / Серии: 1-4 из 4 (Николай Михайлов)

Скачать
Магнет
ПомощьКак скачать раздачу
Поделиться
Теги / Меткимелодрама
Постер
ОписаниеГод выпуска: 2014
Производство: Россия, Кинокомпания "Студия Паламеда", Продюсерский центр "Фабула"
Жанр: Мелодрама
Продолжительность: ~00:45:00
Субтитры: нет

Режиссёр: Николай Михайлов

В ролях: Алина Кизиярова, Евгений Пронин, Константин Стрельников, Илья Соколовский, Екатерина Волкова, Дмитрий Смирнов, Саак Дурян

Описание: Безоблачная жизнь 20-летней Дины рушится в одночасье: умирает ее дедушка, она становится жертвой квартирных аферистов, ее предает любимый человек, и вдобавок она узнает, что беременна. Ситуация осложняется еще и тем, что, пообещав родить ребенка для другой женщины, Дина вдруг меняет решение: малыш, зашевелившийся под сердцем, становится ей невозможно дорог. Пытаясь сбежать от той, которой теперь ни за что не отдаст своего малыша, Дина случайно стреляет в нее и теперь вынуждена скрываться.

Все раздачи сериала: Ветер в лицо

http://i29.fastpic.ru/big/2011/1030/ea/b1cf2ef64e49d1b69670beab9a74f7ea.png

Качество: WEBRip
Формат: AVI
Видео кодек: XviD
Аудио кодек: AC3
Видео: 720x400 (1.80:1), 25 fps, XviD build 50 ~1629 kbps avg, 0.23 bit/pixel
Аудио: 44.1 kHz, AC3 Dolby Digital, 2/0 (L,R) ch, ~128 kbps

Сторонней рекламы нет!

MediaInfo


ОбщееПолное имя : F:\Ветер в лицо WEBRip XviD\Ветер в лицо 01_серия_WEBRip_XviD.aviФормат : AVIФормат/Информация : Audio Video InterleaveРазмер файла : 597 МбайтПродолжительность : 47 м.Общий поток : 1768 Кбит/секПрограмма кодирования : VirtualDubMod 1.5.10.3 | www.virtualdub-fr.org || (build 2550/release)Библиотека кодирования : VirtualDubMod build 2550/release

ВидеоИдентификатор : 0Формат : MPEG-4 VisualПрофиль формата : Advanced Simple@L5Параметр BVOP формата : 1Параметр QPel формата : НетПараметр GMC формата : Без точки переходаПараметр матрицы формата : Default (MPEG)Идентификатор кодека : XVIDИдентификатор кодека/Подсказка : XviDПродолжительность : 47 м.Битрейт : 1630 Кбит/секШирина : 720 пикс.Высота : 400 пикс.Соотношение сторон : 16:9Частота кадров : 25,000 кадр/секЦветовое пространство : YUVПодвыборка цветности : 4:2:0Битовая глубина : 8 битТип развёртки : ПрогрессивнаяМетод сжатия : С потерямиБит/(Пиксели*Кадры) : 0.226Размер потока : 550 Мбайт (92%)Библиотека кодирования : XviD 1.2.1 (UTC 2008-12-04)

АудиоИдентификатор : 1Формат : AC-3Формат/Информация : Audio Coding 3Идентификатор кодека : 2000Продолжительность : 47 м.Вид битрейта : ПостоянныйБитрейт : 128 Кбит/секКаналы : 2 каналаЧастота : 44,1 КГцМетод сжатия : С потерямиРазмер потока : 43,2 Мбайт (7%)Выравнивание : Разделение по промежуткамПродолжительность промежутка : 40 мс. (1,00 видеокадр)Время предзагрузки промежутка : 500 ms


Раздача группы: http://static.rutracker.org/ranks/rg_humor.gif

Отдельное спасибо [b]Kn1GhT[/b] за предоставление материала.

Внимание ! Раздача ведётся путём добавления новых серий
Внимание! Раздача ведётся путём добавления новых серий; при каждом добавлении создётся новый торрент. Чтобы начать докачку новой серии, пользователям необходимо сделать следующее:
(1) остановить скачивание,
(2) удалить старый торрент у себя из клиента (старые серии удалять не надо),
(3) скачать новый торрент и запустить его у себя в клиенте вместо старого, при этом указать клиенту путь в старую папку куда и должно происходить скачивание новых серий.
Ваш клиент при этом должен произвести хеширование (проверку) старой папки (если не производит сам - помогите ему сделать это), и будет докачивать только те серии которых у вас ещё нет. Старые серии при этом не удаляются, а продолжают раздаваться!
Eсли вы уже удалили старые серии, то предотвратить повторную закачку старых серий можно, отжав галочку в соответсвующих местах при запуске нового торрента. По возможности, желательно не удалять старые серии как можно дольше чтобы релизёр не столько продолжал раздавать старые серии, а смог сконцентрироваться на новых.

ВНИМАНИЕ! ТОРРЕНТ ПЕРЕЗАЛИТ! ДОБАВЛЕНА 2-ая - 4-ая СЕРИЯ!

Скриншоты
http://i61.fastpic.ru/thumb/2014/0505/1c/e1ff362b9c20cde5285f64f034968e1c.jpeg http://i61.fastpic.ru/thumb/2014/0505/f8/b75a9bcac607917584198ab67bbdc2f8.jpeg http://i61.fastpic.ru/thumb/2014/0505/e9/dd1c8243ee51e4e9d403eac3e08474e9.jpeg http://i61.fastpic.ru/thumb/2014/0505/7e/c3c863dfbe0ba6c3e758d2e9eb428b7e.jpeg

http://i17.fastpic.ru/big/2011/0302/93/84d6588c7f6e1cc66b53d3103e74fa93.gif[/img][img]http://s60.radikal.ru/i170/1007/6a/664e8d89abdf.gif
Похожие файлы
Загрузка / Обновление
КатегорияСериалы RSS лента
Просмотров94 раз (a)
Взят0 раз (a)
Файлы4
Размер2.34 GB (2,512,033,792 байт)
Добавлен
РаздалViKa  (Искать торренты)
Участники
Участники - Загрузка / Обновление
Просматривают Просматривают Загрузка...

-†- ¿? -†-
« Предыдущая - † Страница † - Следующая »

:: Список Комментариев
Нет комментариев.

 Нет комментариев
Вам запрещенно редактировать, создать или удалять комментарии.
shpv© 2007-2014
Страничка сформирована за 0.974 секунд.
Яндекс.Метрика Rambler's Top100