скачать торрент трекер Friends
 
 Главная  •  Торренты  •  Новые релизы  •  Форум  •   •  Персоны кино  •  Правила  •  ЧаВо

Язык интерфейса
Язык интерфейса:


Привет, Гость
[15] из [15]
Введите Логин:
Введите Пароль:
Регистрация
Восстановить Пароль

Линки
АнекдотыБанкоматВсе теги / меткиДополнительные услугиТехподдержка

Главное Меню
 Главная Торренты Релизы за сегодня Персоны кино Запросы / Предложения (3) Правила ЧаВо Проверка BB кодов Топ 10 Архив новостей Прошлые опросы Форматы файлов Группы Последние комментарии Техподдержка

:: Детали раздачи

Ветер в лицо / Серии: 1-4 из 4 (Николай Михайлов)

Скачать
Магнет
ПомощьКак скачать раздачу
Поделиться
Теги / Меткимелодрама
Постер
ОписаниеГод выпуска: 2014
Производство: Россия, Кинокомпания "Студия Паламеда", Продюсерский центр "Фабула"
Жанр: Мелодрама
Продолжительность: ~00:45:00
Субтитры: нет

Режиссёр: Николай Михайлов

В ролях: Алина Кизиярова, Евгений Пронин, Константин Стрельников, Илья Соколовский, Екатерина Волкова, Дмитрий Смирнов, Саак Дурян

Описание: Безоблачная жизнь 20-летней Дины рушится в одночасье: умирает ее дедушка, она становится жертвой квартирных аферистов, ее предает любимый человек, и вдобавок она узнает, что беременна. Ситуация осложняется еще и тем, что, пообещав родить ребенка для другой женщины, Дина вдруг меняет решение: малыш, зашевелившийся под сердцем, становится ей невозможно дорог. Пытаясь сбежать от той, которой теперь ни за что не отдаст своего малыша, Дина случайно стреляет в нее и теперь вынуждена скрываться.

Все раздачи сериала: Ветер в лицо

http://i29.fastpic.ru/big/2011/1030/ea/b1cf2ef64e49d1b69670beab9a74f7ea.png

Качество: WEBRip 1080p
Формат: MKV
Видео кодек: H.264
Аудио кодек: AC-3
Видео: x264, 1920 х 1080 (16:9), 25,000 кадр/сек, ~ 2794 kbps, 0.054 bit/pixel
Аудио: AC-3, 48000 Hz, ~192 Kbps, 2 канала

Сторонней рекламы нет!

MediaInfo


ОбщееУникальный идентификатор : 197094923897646232106901495893783357340 (0x94471A01492B62148784F91031D6279C)Полное имя : F:\Ветер в лицо WEBRip 1080p\Ветер в лицо 01_серия_WEBRip 1080p.mkvФормат : MatroskaРазмер файла : 1,00 ГбайтПродолжительность : 47 м.Общий поток : 3046 Кбит/секНазвание фильма : Veter.v.litso.(01.seriya.iz.04).2014.WEB-DL.(1080p).MediaClubДата кодирования : UTC 2014-05-05 14:09:02Программа кодирования : mkvmerge v6.3.0 ('You can't stop me!') built on Jun 28 2013 20:09:41Библиотека кодирования : libebml v1.3.0 + libmatroska v1.4.0

ВидеоИдентификатор : 1Формат : AVCФормат/Информация : Advanced Video CodecПрофиль формата : High@L4.0Параметр CABAC формата : ДаПараметр ReFrames формата : 2 кадраИдентификатор кодека : V_MPEG4/ISO/AVCПродолжительность : 47 м.Битрейт : 2794 Кбит/секШирина : 1920 пикс.Высота : 1080 пикс.Соотношение сторон : 16:9Режим частоты кадров : ПеременныйЧастота кадров : 25,000 кадр/секЦветовое пространство : YUVПодвыборка цветности : 4:2:0Битовая глубина : 8 битТип развёртки : ПрогрессивнаяБит/(Пиксели*Кадры) : 0.054Размер потока : 943 Мбайт (92%)

АудиоИдентификатор : 2Формат : AC-3Формат/Информация : Audio Coding 3Расширение режима : CM (complete main)Идентификатор кодека : A_AC3Продолжительность : 47 м.Вид битрейта : ПостоянныйБитрейт : 192 Кбит/секКаналы : 2 каналаРасположение каналов : Front: L RЧастота : 48,0 КГцБитовая глубина : 16 битМетод сжатия : С потерямиРазмер потока : 64,8 Мбайт (6%)Язык : Russian


Раздача группы: http://static.rutracker.org/ranks/rg_humor.gif

Отдельное спасибо [b]nikolspup[/b] за предоставление материала.

Внимание ! Раздача ведётся путём добавления новых серий
Внимание! Раздача ведётся путём добавления новых серий; при каждом добавлении создётся новый торрент. Чтобы начать докачку новой серии, пользователям необходимо сделать следующее:
(1) остановить скачивание,
(2) удалить старый торрент у себя из клиента (старые серии удалять не надо),
(3) скачать новый торрент и запустить его у себя в клиенте вместо старого, при этом указать клиенту путь в старую папку куда и должно происходить скачивание новых серий.
Ваш клиент при этом должен произвести хеширование (проверку) старой папки (если не производит сам - помогите ему сделать это), и будет докачивать только те серии которых у вас ещё нет. Старые серии при этом не удаляются, а продолжают раздаваться!
Eсли вы уже удалили старые серии, то предотвратить повторную закачку старых серий можно, отжав галочку в соответсвующих местах при запуске нового торрента. По возможности, желательно не удалять старые серии как можно дольше чтобы релизёр не столько продолжал раздавать старые серии, а смог сконцентрироваться на новых.

ВНИМАНИЕ! ТОРРЕНТ ПЕРЕЗАЛИТ! ДОБАВЛЕНА 2-ая - 4-ая СЕРИЯ!

Скриншоты
http://i61.fastpic.ru/thumb/2014/0505/41/a2438f2e241248a335bfe7fb3b6eb741.jpeg http://i61.fastpic.ru/thumb/2014/0505/63/bd279684a07dba6a0f76dffb3c714363.jpeg http://i61.fastpic.ru/thumb/2014/0505/12/9b66f03f705df46b7d066fb9c4d72212.jpeg http://i61.fastpic.ru/thumb/2014/0505/b7/115c146d5199abb8ad78f33393908eb7.jpeg

http://i17.fastpic.ru/big/2011/0302/93/84d6588c7f6e1cc66b53d3103e74fa93.gif[/img][img]http://s60.radikal.ru/i170/1007/6a/664e8d89abdf.gif
Похожие файлы
Загрузка / Обновление
КатегорияСериалы RSS лента
Просмотров122 раз (a)
Взят0 раз (a)
Файлы4
Размер3.88 GB (4,166,956,665 байт)
Добавлен
РаздалViKa  (Искать торренты)
Участники
Участники - Загрузка / Обновление
Просматривают Просматривают Загрузка...

-†- ¿? -†-
« Предыдущая - † Страница † - Следующая »

:: Список Комментариев
Нет комментариев.

 Нет комментариев
Вам запрещенно редактировать, создать или удалять комментарии.
shpv© 2007-2014
Страничка сформирована за 0.035 секунд.
Яндекс.Метрика Rambler's Top100