скачать торрент трекер Friends
 
 Главная  •  Торренты  •  Новые релизы  •  Форум  •   •  Персоны кино  •  Правила  •  ЧаВо

Язык интерфейса
Язык интерфейса:


Привет, Гость
[15] из [15]
Введите Логин:
Введите Пароль:
Регистрация
Восстановить Пароль

Линки
АнекдотыБанкоматВсе теги / меткиДополнительные услугиТехподдержка

Главное Меню
 Главная Торренты Релизы за сегодня Персоны кино Запросы / Предложения (3) Правила ЧаВо Проверка BB кодов Топ 10 Архив новостей Прошлые опросы Форматы файлов Группы Последние комментарии Техподдержка

:: Детали раздачи
Торрент раздача является мультитрекерной — учтите, количество раздающих не будет совпадать с количеством участников на сайте (скачивание на клиентской стороне зависит от настроек uTorrent клиент программы, настройки -> Включить DHT, Обмен пирами и Поиск лок-х пиров).
Если висит надпись, пиры по нулям - не бойтесь, возможность скачать повторно торрент раздачу - есть. Попробуйте, в случае отказа - прокоментируйте или нажмите на "Позвать скачавших".

Переводчик / Серии: 1 из 4 (Андрей Прошкин)

Скачать
Магнет
ПомощьКак скачать раздачу
Поделиться
Теги / Меткивоенный, драма
Постер
ОписаниеГод выпуска: 2014
Производство: Россия / Марс Медиа
Жанр: Военный, Драма
Продолжительность: ~00:45:00
Субтитры: Отсутствуют

Режиссёр: Андрей Прошкин

В ролях: Виталий Хаев, Йоахим Пауль Ассбeк, Лариса Малеванная, Карина Андоленко, Ханс-Георг Блюмрайтер, Петар Зекавица, Анна Уколова, Борис Каморзин, Ольга Лапшина, Михаил Горбатов, Карен Джангиров, Камиль Тукаев, Дмитрий Моршаков, Ирина Долганова, Борис Недбайлов

Описание: Эта история о том, как обыкновенный негероический человек, становится героем. Преподаватель химии Андрей Петрович Стариков — по прозвищу «Чарли Чаплин» — живет с женой и матерью в старом доме-колодце, в котором, как в ковчеге, собрался пестрый интернационал: украинцы, русские, евреи, татары и армяне. Но приход немцев резко меняет их жизнь. Чтобы спасти своих близких, Чарли вынужден служить переводчиком в фашистском штабе.

Доп. информация: В основу сценария четырехсерийной военной драмы "Переводчик" был положен сюжет французского фильма 1975 года "Старое ружье" («Le vieux fusil») с Филиппом Нуаре (Philippe Noiret) и Роми Шнайдер (Romy Schneider) в главных ролях. Сценаристом российской картины стал Игорь Порублев, самой известной работой которого является сериал "Бригада".

Все раздачи сериала: Все раздачи сериала
Сэмпл: http://multi-up.com/971797

Качество: SATRip
Формат: AVI
Видео кодек: DivX
Аудио кодек: MP3
Видео: DivX 5, 704 x 400 (16:9), 25,000 кадров/сек, 1701 Кбит/сек, 0.242 bit/pixel
Аудио: MP3, 48,0 КГц, 128 Кбит/сек (2 канала)

Сторонней рекламы нет!

MI
Формат : AVI
Формат/Информация : Audio Video Interleave
Размер файла : 650 Мбайт
Продолжительность : 49 м.
Общий поток : 1846 Кбит/сек

Видео
Идентификатор : 0
Формат : MPEG-4 Visual
Параметр BVOP формата : Да
Параметр QPel формата : Нет
Параметр GMC формата : Без точки перехода
Параметр матрицы формата : Default (H.263)
Идентификатор кодека : DX50
Идентификатор кодека/Подсказка : DivX 5
Продолжительность : 49 м.
Битрейт : 1701 Кбит/сек
Ширина : 704 пикселя
Высота : 400 пикселей
Соотношение сторон : 16:9
Частота кадров : 25,000 кадров/сек
Цветовое пространство : YUV
Субдискретизация насыщенности : 4:2:0
Битовая глубина : 8 бит
Тип развёртки : Прогрессивная
Метод сжатия : С потерями
Бит/(Пиксели*Кадры) : 0.242
Размер потока : 599 Мбайт (92%)
Библиотека кодирования : Intel(R) MPEG-4 encoder based on Intel(R) IPP 6.1 build 137.20[6.1.137.763]

Аудио
Идентификатор : 1
Формат : MPEG Audio
Версия формата : Version 1
Профиль формата : Layer 3
Режим : Joint stereo
Расширение режима : MS Stereo
Идентификатор кодека : 55
Идентификатор кодека/Подсказка : MP3
Продолжительность : 49 м.
Вид битрейта : Постоянный
Битрейт : 128 Кбит/сек
Каналы : 2 канала
Частота : 48,0 КГц
Метод сжатия : С потерями
Размер потока : 45,1 Мбайт (7%)
Выравнивание : Соединение по промежуткам
Продолжительность промежутка : 24 мс. (0,60 видеокадр)
Библиотека кодирования : LAME3.98.2


Скриншоты
http://i63.fastpic.ru/thumb/2014/0505/c2/e1079cdb2555993ed46e2038f67e94c2.jpeg http://i62.fastpic.ru/thumb/2014/0505/41/9be4f80f82192129a04c836e14927741.jpeg http://i63.fastpic.ru/thumb/2014/0505/bc/b189c877dc2715f6373b0c5abe8327bc.jpeg http://i61.fastpic.ru/thumb/2014/0505/6a/50413d5437664f9c509a66bde932a46a.jpeg http://i64.fastpic.ru/thumb/2014/0505/54/2d258554141bb3957ec114f87cbbe154.jpeg


Даты Выхода
пн, 5 мая 21:30 Первый канал
1-я серия
пн, 6 мая 21:30 Первый канал
2-я серия
ср, 7 мая 21:30 Первый канал
3-я серия
чт, 8 мая 21:30 Первый канал
4-я серия


Интересные факты
— Рабочее название сериала — "Старое ружье". — Сериал "Переводчик" — не первая совместная работа Андрея Прошкина и Юрия Райского. Ранее режиссер и оператор вместе работали над созданием картин "Солдатский Декамерон", "Игры мотыльков", "Миннесота" и "Орда". — Исполнитель главной роли в картине, актер Виталий Хаев уже приезжал в 2002 году в Таганрог на съемки, когда участвовал в создании телесериала Кирилла Серебренникова "Дневник убийцы".


Внимание! Раздача ведётся путём добавления новых выпусков
При каждом добавлении создаётся новый торрент. Чтобы начать докачку нового выпуска, пользователям необходимо сделать следующее:
П остановить скачивание;
П удалить старый торрент у себя из клиента (старые выпуски удалять не надо);
П скачать новый торрент и запустить его у себя в клиенте вместо старого, при этом указать клиенту путь в старую папку куда и должно происходить скачивание новых выпусков;
П ваш клиент при запуске должен произвести хеширование (проверку) старой папки (если не производит сам - помогите ему сделать это), и будет докачивать только те выпуски, которых у вас ещё нет. Старые выпуски при этом не удаляются, а продолжают раздаваться!, Конец фильма!
П Eсли вы уже удалили старые выпуски, то предотвратить повторную закачку старых выпусков можно, отжав галочку в соответсвующих местах при запуске нового торрента.
Похожие файлы
Загрузка / Обновление
КатегорияСериалы RSS лента
Просмотров192 раз (a)
Взят1 раз (a)
Файлы1
Размер649.78 MB (681,346,908 байт)
Добавлен
РаздалViKa  (Искать торренты)
Участники
Участники - Загрузка / Обновление
Просматривают Просматривают Загрузка...

-†- ¿? -†-
« Предыдущая - † Страница † - Следующая »

:: Список Комментариев
Нет комментариев.

 Нет комментариев
Вам запрещенно редактировать, создать или удалять комментарии.
shpv© 2007-2014
Страничка сформирована за 0.229 секунд.
Яндекс.Метрика Rambler's Top100