скачать торрент трекер Friends
 
 Главная  •  Торренты  •  Новые релизы  •  Форум  •   •  Персоны кино  •  Правила  •  ЧаВо

Язык интерфейса
Язык интерфейса:


Привет, Гость
[15] из [15]
Введите Логин:
Введите Пароль:
Регистрация
Восстановить Пароль

Линки
АнекдотыБанкоматВсе теги / меткиДополнительные услугиТехподдержка

Главное Меню
 Главная Торренты Релизы за сегодня Персоны кино Запросы / Предложения (3) Правила ЧаВо Проверка BB кодов Топ 10 Архив новостей Прошлые опросы Форматы файлов Группы Последние комментарии Техподдержка

:: Детали раздачи
Торрент раздача является мультитрекерной — учтите, количество раздающих не будет совпадать с количеством участников на сайте (скачивание на клиентской стороне зависит от настроек uTorrent клиент программы, настройки -> Включить DHT, Обмен пирами и Поиск лок-х пиров).
Если висит надпись, пиры по нулям - не бойтесь, возможность скачать повторно торрент раздачу - есть. Попробуйте, в случае отказа - прокоментируйте или нажмите на "Позвать скачавших".

Ой, Ма-моч-ки!.. (Ой, мамочки!), Серия 1-5 из 12 (Иван Павлов)

Скачать
Магнет
ПомощьКак скачать раздачу
Поделиться
Теги / Меткимелодрама
Постер
ОписаниеГод выпуска: 2013-2014
Производство: Беларусь, «Беларусьфильм» и ООО «Студия «Мы»
Жанр: мелодрама
Продолжительность: 00:50:10
Субтитры: Нет

Режиссёр: Иван Павлов

В ролях: Александр Макогон, Вера Полякова, Александра Назарова, Анна Казючиц, Игорь Сигов, Алеся Пуховая, Валентина Гарцуева, Светлана Боровская, Анастасия Орёл, Денис Паршин, Владислав Бархатов, Сергей Власов (IV), Татьяна Чердынцева, Елена Дубровская, Инна Коляда, Яна Касперович, Светлана Аникей, Светлана Зеленковская, Оксана Лесная, Вероника Пляшкевич, Евгения Кульбачная, Екатерина Шуляк

Описание: Вера Михайловна работает заведующей отделением патологии в одном из городских родильных домов. Это очень непростая и очень ответственная работа – помогать будущим мамам произвести на свет здоровых и счастливых малышей. Тем более, что мама маме рознь – кто-то из пациенток Веры Михайловны состоит в законном браке и счастливо ждёт прибавления в семействе, кто-то желает родить ребенка несмотря на хрупкое здоровье или сопротивление родных, а кто-то очень одинок и всерьез помышляет об отказе от первенца… У всех будущих мам есть своя история – трогательная и волнительная, радостная или печальная, но обязательно полная надежды.





Доп. информация: Реклама отсутствует!





Релиз группы:: http://i1.imageban.ru/out/2013/12/25/6757870fb792b4dbe53d867619848c94.png





Все раздачи сериала: http://rutracker.org/forum/tracker.php?f=9&nm=Ой,%20Ма-моч-ки!
Сэмпл: https://cloud.mail.ru/public/f03bfaffef92/%D0%9E%D0...Rip. by.simka.avi

Качество: SATRip
Формат: AVI
Видео кодек: XviD
Аудио кодек: MP3
Видео: 720x400, 25 fps, XviD, ~1600 kbps, 0.211 bit/pixel
Аудио: 48 kHz, MPEG Layer 3, 2 ch, 192 kbps

MI
Общее
Полное имя : Y:\Сериалы 2014\Ой, Ма-моч-ки!.. (Ой, мамочки!) (2012-2014)\Ой, Ма-моч-ки!.. (Ой, мамочки!).(01.seriya).2013-2014.XviD.SATRip.by.simka.avi
Формат : AVI
Формат/Информация : Audio Video Interleave
Размер файла : 651 Мбайт
Продолжительность : 50 м.
Общий поток : 1819 Кбит/сек
Программа кодирования : VirtualDubMod 1.5.10.3 | www.virtualdub-fr.org || (build 2550/release)
Библиотека кодирования : VirtualDubMod build 2550/release

Видео
Идентификатор : 0
Формат : MPEG-4 Visual
Профиль формата : Advanced Simple@L5
Параметр BVOP формата : 1
Параметр QPel формата : Нет
Параметр GMC формата : Без точки перехода
Параметр матрицы формата : Default (MPEG)
Идентификатор кодека : XVID
Идентификатор кодека/Подсказка : XviD
Продолжительность : 50 м.
Битрейт : 1617 Кбит/сек
Ширина : 720 пикселей
Высота : 400 пикселей
Соотношение сторон : 16:9
Частота кадров : 25,000 кадров/сек
Цветовое пространство : YUV
Субдискретизация насыщенности : 4:2:0
Битовая глубина : 8 бит
Тип развёртки : Прогрессивная
Метод сжатия : С потерями
Бит/(Пиксели*Кадры) : 0.225
Размер потока : 579 Мбайт (89%)
Библиотека кодирования : XviD 1.2.1 (UTC 2008-12-04)

Аудио
Идентификатор : 1
Формат : MPEG Audio
Версия формата : Version 1
Профиль формата : Layer 3
Режим : Joint stereo
Расширение режима : MS Stereo
Идентификатор кодека : 55
Идентификатор кодека/Подсказка : MP3
Продолжительность : 50 м.
Вид битрейта : Постоянный
Битрейт : 192 Кбит/сек
Каналы : 2 канала
Частота : 48,0 КГц
Метод сжатия : С потерями
Размер потока : 68,7 Мбайт (11%)
Выравнивание : Соединение по промежуткам
Продолжительность промежутка : 40 мс. (1,00 видеокадр)
Время предзагрузки промежутка : 504 мс.
Библиотека кодирования : LAME3.99r
Настройки программы : -m j -V 4 -q 2 -lowpass 18.6 -b 192


Скриншоты
http://firepic.org/?v=2014-04-28_ivunxa29knqg.png
http://firepic.org/?v=2014-04-28_o51pdgfe8t98.png
http://firepic.org/?v=2014-04-28_rba6jvpwjqoh.png
http://firepic.org/?v=2014-04-28_12x8gsxw823d.png
http://firepic.org/?v=2014-04-28_67a3q0z9a14k.png
http://firepic.org/?v=2014-04-28_mi8vzl3pcqmi.png
http://firepic.org/?v=2014-04-28_0a682xaxuapa.png


-------------

Внимание! Раздача ведётся путём добавления новых выпусков
При каждом добавлении создаётся новый торрент. Чтобы начать докачку нового выпуска, пользователям необходимо сделать следующее:
П остановить скачивание;
П удалить старый торрент у себя из клиента (старые выпуски удалять не надо);
П скачать новый торрент и запустить его у себя в клиенте вместо старого, при этом указать клиенту путь в старую папку куда и должно происходить скачивание новых выпусков;
П ваш клиент при запуске должен произвести хеширование (проверку) старой папки (если не производит сам - помогите ему сделать это), и будет докачивать только те выпуски, которых у вас ещё нет. Старые выпуски при этом не удаляются, а продолжают раздаваться!, Конец фильма!
П Eсли вы уже удалили старые выпуски, то предотвратить повторную закачку старых выпусков можно, отжав галочку в соответсвующих местах при запуске нового торрента.

Добавлена 5-я серия
Похожие файлы
Загрузка / Обновление
КатегорияСериалы RSS лента
Просмотров162 раз (a)
Взят0 раз (a)
Файлы5
Размер3.18 GB (3,412,252,672 байт)
Добавлен
РаздалViKa  (Искать торренты)
Участники
Участники - Загрузка / Обновление
Просматривают Просматривают Загрузка...

-†- ¿? -†-
« Предыдущая - † Страница † - Следующая »

:: Список Комментариев
Нет комментариев.

 Нет комментариев
Вам запрещенно редактировать, создать или удалять комментарии.
shpv© 2007-2014
Страничка сформирована за 0.117 секунд.
Яндекс.Метрика Rambler's Top100