скачать торрент трекер Friends
 
 Главная  •  Торренты  •  Новые релизы  •  Форум  •   •  Персоны кино  •  Правила  •  ЧаВо

Язык интерфейса
Язык интерфейса:


Привет, Гость
[15] из [15]
Введите Логин:
Введите Пароль:
Регистрация
Восстановить Пароль

Линки
АнекдотыБанкоматВсе теги / меткиДополнительные услугиТехподдержка

Главное Меню
 Главная Торренты Релизы за сегодня Персоны кино Запросы / Предложения (3) Правила ЧаВо Проверка BB кодов Топ 10 Архив новостей Прошлые опросы Форматы файлов Группы Последние комментарии Техподдержка

:: Детали раздачи
Торрент раздача является мультитрекерной — учтите, количество раздающих не будет совпадать с количеством участников на сайте (скачивание на клиентской стороне зависит от настроек uTorrent клиент программы, настройки -> Включить DHT, Обмен пирами и Поиск лок-х пиров).
Если висит надпись, пиры по нулям - не бойтесь, возможность скачать повторно торрент раздачу - есть. Попробуйте, в случае отказа - прокоментируйте или нажмите на "Позвать скачавших".

Переводчик / Серии: 1-из 4 (Андрей Прошкин)

Скачать
Магнет
ПомощьКак скачать раздачу
Поделиться
Теги / Меткивоенный фильм, драма
Постер
ОписаниеГод выпуска: 2014
Производство: Россия / Марс Медиа
Жанр: Военный фильм, драма
Продолжительность: ~00:45:00
Субтитры: нет

Режиссёр: Андрей Прошкин

В ролях: Виталий Хаев, Йоахим Пауль Ассбeк, Лариса Малеванная, Карина Андоленко, Ханс-Георг Блюмрайтер, Петар Зекавица, Анна Уколова, Борис Каморзин, Ольга Лапшина, Михаил Горбатов, Карен Джангиров, Камиль Тукаев, Дмитрий Моршаков, Ирина Долганова, Борис Недбайлов

Описание: Описание: Эта история о том, как обыкновенный негероический человек, становится героем. Преподаватель химии Андрей Петрович Стариков — по прозвищу «Чарли Чаплин» — живет с женой и матерью в старом доме-колодце, в котором, как в ковчеге, собрался пестрый интернационал: украинцы, русские, евреи, татары и армяне. Но приход немцев резко меняет их жизнь. Чтобы спасти своих близких, Чарли вынужден служить переводчиком в фашистском штабе.

Доп. информация: В основу сценария четырехсерийной военной драмы "Переводчик" был положен сюжет французского фильма 1975 года "Старое ружье" («Le vieux fusil») с Филиппом Нуаре (Philippe Noiret) и Роми Шнайдер (Romy Schneider) в главных ролях. Сценаристом российской картины стал Игорь Порублев, самой известной работой которого является сериал "Бригада".

Все раздачи сериала: Переводчик

http://i29.fastpic.ru/big/2011/1030/ea/b1cf2ef64e49d1b69670beab9a74f7ea.png

Качество: HDTV 1080i
Формат: TS
Видео кодек: H.264
Аудио кодек: MPEG Audio
Видео: MPEG4 Video (H264) 1920x1080, ~ 9734 kbps, 25.00fps 0.188 bit/pixel
Аудио: MPEG Audio, 2 канала, 48,0 КГц, ~192 kbps

Сторонней рекламы нет!

MediaInfo


ОбщееИдентификатор : 1 (0x1)Полное имя : F:\Переводчик (Чарли) HDTV 1080i\Переводчик (Чарли) 01_серия_HDTV_1080i.tsФормат : MPEG-TSРазмер файла : 3,59 ГбайтПродолжительность : 49 м.Общий поток : 10,4 Мбит/сек

ВидеоИдентификатор : 1603 (0x643)Идентификатор меню : 1 (0x1)Формат : AVCФормат/Информация : Advanced Video CodecПрофиль формата : High@L4.0Параметр CABAC формата : ДаПараметр ReFrames формата : 3 кадраПараметры GOP формата : M=1, N=30Идентификатор кодека : 27Продолжительность : 49 м.Битрейт : 9734 Кбит/секШирина : 1920 пикс.Высота : 1080 пикс.Соотношение сторон : 16:9Частота кадров : 25,000 кадр/секСтандарт вещания : ComponentЦветовое пространство : YUVПодвыборка цветности : 4:2:0Битовая глубина : 8 битТип развёртки : ЧересстрочнаяПорядок развёртки : Верхнее поле первоеБит/(Пиксели*Кадры) : 0.188Размер потока : 3,34 Гбайт (93%)Основные цвета : BT.709-5, BT.1361, IEC 61966-2-4, SMPTE RP177Характеристики трансфера : BT.709-5, BT.1361Коэффициенты матрицы : BT.709-5, BT.1361, IEC 61966-2-4 709, SMPTE RP177

АудиоИдентификатор : 2603 (0xA2B)Идентификатор меню : 1 (0x1)Формат : MPEG AudioВерсия формата : Version 1Профиль формата : Layer 2Идентификатор кодека : 3Продолжительность : 49 м.Вид битрейта : ПостоянныйБитрейт : 192 Кбит/секКаналы : 2 каналаЧастота : 48,0 КГцМетод сжатия : С потерямиРазмер потока : 67,5 Мбайт (2%)Язык : Russian


Раздача группы: http://static.rutracker.org/ranks/rg_humor.gif

Отдельное спасибо [b]Kn1GhT[/b] за предоставление материала.

Внимание ! Раздача ведётся путём добавления новых серий
Внимание! Раздача ведётся путём добавления новых серий; при каждом добавлении создётся новый торрент. Чтобы начать докачку новой серии, пользователям необходимо сделать следующее:
(1) остановить скачивание,
(2) удалить старый торрент у себя из клиента (старые серии удалять не надо),
(3) скачать новый торрент и запустить его у себя в клиенте вместо старого, при этом указать клиенту путь в старую папку куда и должно происходить скачивание новых серий.
Ваш клиент при этом должен произвести хеширование (проверку) старой папки (если не производит сам - помогите ему сделать это), и будет докачивать только те серии которых у вас ещё нет. Старые серии при этом не удаляются, а продолжают раздаваться!
Eсли вы уже удалили старые серии, то предотвратить повторную закачку старых серий можно, отжав галочку в соответсвующих местах при запуске нового торрента. По возможности, желательно не удалять старые серии как можно дольше чтобы релизёр не столько продолжал раздавать старые серии, а смог сконцентрироваться на новых.

ВНИМАНИЕ! ТОРРЕНТ ПЕРЕЗАЛИТ! ДОБАВЛЕНА 1-ая СЕРИЯ!

Скриншоты
http://i64.fastpic.ru/thumb/2014/0505/5a/79e9f03223410226db5f704ecef7bb5a.jpeg http://i64.fastpic.ru/thumb/2014/0505/4c/6aa2daa452ff37b5fcae16f9a13b044c.jpeg http://i64.fastpic.ru/thumb/2014/0505/10/3d9c20914564a0218f2c70a8217c5610.jpeg http://i64.fastpic.ru/thumb/2014/0505/9c/9c2239bb7fd86d2abdb072be9104969c.jpeg

http://i17.fastpic.ru/big/2011/0302/93/84d6588c7f6e1cc66b53d3103e74fa93.gif[/img][img]http://s60.radikal.ru/i170/1007/6a/664e8d89abdf.gif
Похожие файлы
Загрузка / Обновление
КатегорияСериалы RSS лента
Просмотров172 раз (a)
Взят3 раз (a)
Файлы1
Размер3.59 GB (3,850,070,800 байт)
Добавлен
РаздалViKa  (Искать торренты)
Участники
Участники - Загрузка / Обновление
Просматривают Просматривают Загрузка...

-†- ¿? -†-
« Предыдущая - † Страница † - Следующая »

:: Список Комментариев
Нет комментариев.

 Нет комментариев
Вам запрещенно редактировать, создать или удалять комментарии.
shpv© 2007-2014
Страничка сформирована за 0.299 секунд.
Яндекс.Метрика Rambler's Top100