скачать торрент трекер Friends
 
 Главная  •  Торренты  •  Новые релизы  •  Форум  •   •  Персоны кино  •  Правила  •  ЧаВо

Язык интерфейса
Язык интерфейса:


Привет, Гость
[15] из [15]
Введите Логин:
Введите Пароль:
Регистрация
Восстановить Пароль

Линки
АнекдотыБанкоматВсе теги / меткиДополнительные услугиТехподдержка

Главное Меню
 Главная Торренты Релизы за сегодня Персоны кино Запросы / Предложения (3) Правила ЧаВо Проверка BB кодов Топ 10 Архив новостей Прошлые опросы Форматы файлов Группы Последние комментарии Техподдержка

:: Детали раздачи
Торрент раздача является мультитрекерной — учтите, количество раздающих не будет совпадать с количеством участников на сайте (скачивание на клиентской стороне зависит от настроек uTorrent клиент программы, настройки -> Включить DHT, Обмен пирами и Поиск лок-х пиров).
Если висит надпись, пиры по нулям - не бойтесь, возможность скачать повторно торрент раздачу - есть. Попробуйте, в случае отказа - прокоментируйте или нажмите на "Позвать скачавших".

До свидания, мальчики (Подольские курсанты) / Серии: 1-13 из 16 (Сергей Крутин)

Скачать
Магнет
ПомощьКак скачать раздачу
Поделиться
Теги / Меткивоенный фильм, драма
Постер
ОписаниеГод выпуска: 2014
Производство: "Пирамида"
Жанр: Военный фильм, драма
Продолжительность: ~0:50:00 серия
Субтитры: украинские вшитые

Режиссёр: Сергей Крутин

В ролях: Владимир Вдовиченков, Мария Шукшина, Андрей Соколов, Елена Ксенофонтова, Артур Ваха, Анатолий Кот, Екатерина Волкова, Вячеслав Манучаров, Александр Наумов, Елизавета Пащенко, Илья Шляга, Лина Шишова, Евгений Капорин

Описание: 1941 год, последние мирные дни... Бывший детдомовец Саша Воронов приезжает в небольшой городок под Москвой поступать в местное артиллерийское училище. Здесь у него появляются новые друзья - Надя, Гена и Коля, вместе с которыми он разоблачает завербованного агента немецкой разведки.
Начинается война. Саша, Гена и Коля становятся курсантами артиллерийского училища. И, несмотря на то, что постигать военную науку им приходится по тринадцать часов в день, они успевают и влюбляться, и между собой конфликтовать, и в самоволку бегать...
Осенью 1941 года нависает угроза выхода немецких войск непосредственно к Москве. 5 октября курсантов и преподавателей артиллерийского училища поднимают по тревоге. Им предстоит любой ценой задержать продвижение врага до подхода резервов Верховного Командования. Все мальчишки уходят в числе первых...

Все раздачи сериала: До свидания, мальчики (Подольские курсанты)

http://i29.fastpic.ru/big/2011/1030/ea/b1cf2ef64e49d1b69670beab9a74f7ea.png

Качество: DVB
Формат: MPEG
Видео кодек: MPEG2
Аудио кодек: MPEG1
Видео: MPEG2 Video 768х576 @ 704x576 (4:3) 25.00fps ~2723 Kbps (0.269 bit/pixel)
Аудио: MPEG Audio 48000Hz 2 channels 192 Кбит/сек

Сторонней рекламы нет!

MediaInfo


ОбщееПолное имя : F:\До свидания, мальчики (Подольские курсанты) DVB\До свидания, мальчики 01_серия_DVB_by_Серый1779.mpgФормат : MPEG-PSРазмер файла : 1,03 ГбайтПродолжительность : 49 м.Общий поток : 2974 Кбит/сек

ВидеоИдентификатор : 224 (0xE0)Формат : MPEG VideoВерсия формата : Version 2Профиль формата : Main@MainПараметр BVOP формата : НетПараметр матрицы формата : По умолчаниюПараметры GOP формата : M=1, N=23Продолжительность : 49 м.Вид битрейта : ПеременныйБитрейт : 2723 Кбит/секНоминальный битрейт : 15,0 Мбит/секШирина : 704 пикс.Высота : 576 пикс.Соотношение сторон : 4:3Частота кадров : 25,000 кадр/секСтандарт вещания : PALЦветовое пространство : YUVПодвыборка цветности : 4:2:0Битовая глубина : 8 битТип развёртки : ЧересстрочнаяПорядок развёртки : Верхнее поле первоеМетод сжатия : С потерямиБит/(Пиксели*Кадры) : 0.269Размер потока : 966 Мбайт (92%)

АудиоИдентификатор : 192 (0xC0)Формат : MPEG AudioВерсия формата : Version 1Профиль формата : Layer 2Продолжительность : 49 м.Вид битрейта : ПостоянныйБитрейт : 192 Кбит/секКаналы : 2 каналаЧастота : 48,0 КГцМетод сжатия : С потерямиРазмер потока : 68,1 Мбайт (6%)


Запись и монтаж: http://i27.fastpic.ru/big/2012/0109/f4/e3cb3b5ce4a312896095daceb5e8bcf4.gif

Раздача группы: http://static.rutracker.org/pic/rgrs/logo.png

Внимание ! Раздача ведётся путём добавления новых серий
Внимание! Раздача ведётся путём добавления новых серий; при каждом добавлении создётся новый торрент. Чтобы начать докачку новой серии, пользователям необходимо сделать следующее:
(1) остановить скачивание,
(2) удалить старый торрент у себя из клиента (старые серии удалять не надо),
(3) скачать новый торрент и запустить его у себя в клиенте вместо старого, при этом указать клиенту путь в старую папку куда и должно происходить скачивание новых серий.
Ваш клиент при этом должен произвести хеширование (проверку) старой папки (если не производит сам - помогите ему сделать это), и будет докачивать только те серии которых у вас ещё нет. Старые серии при этом не удаляются, а продолжают раздаваться!
Eсли вы уже удалили старые серии, то предотвратить повторную закачку старых серий можно, отжав галочку в соответсвующих местах при запуске нового торрента. По возможности, желательно не удалять старые серии как можно дольше чтобы релизёр не столько продолжал раздавать старые серии, а смог сконцентрироваться на новых.

ВНИМАНИЕ! ТОРРЕНТ ПЕРЕЗАЛИТ! ДОБАВЛЕНА 13-ая СЕРИИ!

Скриншоты
http://i56.fastpic.ru/thumb/2014/0428/eb/2990e930b1d1a2234be54a3d5e44d1eb.jpeg http://i56.fastpic.ru/thumb/2014/0428/49/8de378ad8af8861b810f13078ed24d49.jpeg http://i56.fastpic.ru/thumb/2014/0428/56/86cb2932b21f2c26aa884c9d79504e56.jpeg http://i56.fastpic.ru/thumb/2014/0428/76/b97fa6b6e211ab3d06c4ff2afa403176.jpeg http://i56.fastpic.ru/thumb/2014/0428/9a/52eea90f2c262e810347f14b6c5a599a.jpeg http://i56.fastpic.ru/thumb/2014/0428/fa/6e20f0a83f95092dec9d5ee5ddd0d6fa.jpeg

http://i17.fastpic.ru/big/2011/0302/93/84d6588c7f6e1cc66b53d3103e74fa93.gif[/img][img]http://s60.radikal.ru/i170/1007/6a/664e8d89abdf.gif
Похожие файлы
Загрузка / Обновление
КатегорияСериалы RSS лента
Просмотров247 раз (a)
Взят0 раз (a)
Файлы13
Размер13.99 GB (15,019,374,592 байт)
Добавлен
РаздалViKa  (Искать торренты)
Участники
Участники - Загрузка / Обновление
Просматривают Просматривают Загрузка...

-†- ¿? -†-
« Предыдущая - † Страница † - Следующая »

:: Список Комментариев
Нет комментариев.

 Нет комментариев
Вам запрещенно редактировать, создать или удалять комментарии.
shpv© 2007-2014
Страничка сформирована за 5.033 секунд.
Яндекс.Метрика Rambler's Top100