скачать торрент трекер Friends
 
 Главная  •  Торренты  •  Новые релизы  •  Форум  •   •  Персоны кино  •  Правила  •  ЧаВо

Язык интерфейса
Язык интерфейса:


Привет, Гость
[15] из [15]
Введите Логин:
Введите Пароль:
Регистрация
Восстановить Пароль

Линки
АнекдотыБанкоматВсе теги / меткиДополнительные услугиТехподдержка

Главное Меню
 Главная Торренты Релизы за сегодня Персоны кино Запросы / Предложения (3) Правила ЧаВо Проверка BB кодов Топ 10 Архив новостей Прошлые опросы Форматы файлов Группы Последние комментарии Техподдержка

:: Детали раздачи
Торрент раздача является мультитрекерной — учтите, количество раздающих не будет совпадать с количеством участников на сайте (скачивание на клиентской стороне зависит от настроек uTorrent клиент программы, настройки -> Включить DHT, Обмен пирами и Поиск лок-х пиров).
Если висит надпись, пиры по нулям - не бойтесь, возможность скачать повторно торрент раздачу - есть. Попробуйте, в случае отказа - прокоментируйте или нажмите на "Позвать скачавших".

Тихая охота / Серии: 1-30 из 30 (Сергей Артимович, Владимир Штерянов)

Скачать
Магнет
ПомощьКак скачать раздачу
Поделиться
Теги / Меткидетектив, криминал
Постер
ОписаниеГод выпуска: 2014
Страна: Россия, "Star Media"
Жанр: Детектив, криминал
Продолжительность: ~ 00:44:00
Перевод: Не требуется



Режиссер: Сергей Артимович, Владимир Штерянов



В ролях: Максим Дрозд, Павел Баршак, Владимир Стержаков, Павел Трубинер, Елена Радевич, Микаэл Джанибекян, Александр Тютин, Александр Цуркан, Максим Емельянов, Геннадий Матвеев, Евгений Мундум, Михаил Салин, Бесо Гатаев, Екатерина Крупенина, Максим Артамонов, Сергей Тодоров, Сергей Огурцов, Анна Зайцева, Анна Масальская, Сергей Сосновский, Иван Непомнящий, Венчислав Хотяновский, Дарья Повереннова, Олег Морозов, Игорь Литовкин, Максим Левикин, Игорь Поселенов, Роман Синицын, Фаридуншо Рахматуллоев, Михаил Чепуров, Александр Шаршов, Дмитрий Воронин, Сергей Комаров, Алла Музалёва, Кристина Рубан, Владимир Кебин, Шухрат Курбанов, Артем Манукян, Дарья Спирина, Сергей Бачурский



Описание: Сериал о работе одного из подразделений криминальной полиции отдела уголовного розыска по борьбе с карманными кражами. Главные герои Ярослав Широков, Семён Хаимович Фельдман, Дмитрий Метельский и Наталья Вольская. На профессиональном сленге их называют «тихарями», а охотятся они за представителями высшей касты воровского дела за щипачами. Карманники работают тихо, вычисляют в толпе жертву и с филигранной точностью забирают у нее все «ненужное» кошельки, телефоны, украшения. И ловить этих «ювелиров» должны не менее профессиональные люди. Щипачи, борсеточники, марвихеры, ширмачи, трясуны, писари, рыболовы, дубилы, резинщики, ломщики, кроты, театралы далеко не полный список тех, с кем ежедневно приходится сталкиваться «тихарям»



Все раздачи сериала / Сэмпл / Реклама отсутствует / Сравнение с раздачей



Качество: WEBRip



Формат: AVI
Видео кодек: XviD
Аудио кодек: AC3
Видео: 720x400 (1.80:1), 25 fps, XviD build 73 ~1523 kbps avg, 0.21 bit/pixel
Аудио: 48 kHz, AC3 Dolby Digital, 2/0 (L,R) ch, ~192 kbps



Автор рипа: SANNYa





MI
Общее
Полное имя : C:\Users\Саня\Desktop\Тихая охота_WEB-DLRip_by_SANNYa\Тихая охота_09_WEB-DLRip_by_SANNYa.avi
Формат : AVI
Формат/Информация : Audio Video Interleave
Размер файла : 551 Мбайт
Продолжительность : 44 м.
Общий поток : 1726 Кбит/сек
Программа кодирования : VirtualDubMod 1.5.10.3 | www.virtualdub-fr.org || (build 2550/release)
Библиотека кодирования : VirtualDubMod build 2550/release

Видео
Идентификатор : 0
Формат : MPEG-4 Visual
Профиль формата : Advanced Simple@L5
Параметр BVOP формата : 1
Параметр QPel формата : Нет
Параметр GMC формата : Без точки перехода
Параметр матрицы формата : Выборочная
Идентификатор кодека : XVID
Идентификатор кодека/Подсказка : XviD
Продолжительность : 44 м.
Битрейт : 1524 Кбит/сек
Ширина : 720 пикселей
Высота : 400 пикселей
Соотношение сторон : 16:9
Частота кадров : 25,000 кадров/сек
Цветовое пространство : YUV
Субдискретизация насыщенности : 4:2:0
Битовая глубина : 8 бит
Тип развёртки : Прогрессивная
Метод сжатия : С потерями
Бит/(Пиксели*Кадры) : 0.212
Размер потока : 486 Мбайт (88%)
Библиотека кодирования : XviD 73

Аудио
Идентификатор : 1
Формат : AC-3
Формат/Информация : Audio Coding 3
Расширение режима : CM (complete main)
Параметр Endianness формата : Big
Идентификатор кодека : 2000
Продолжительность : 44 м.
Вид битрейта : Постоянный
Битрейт : 192 Кбит/сек
Каналы : 2 канала
Расположение каналов : Front: L R
Частота : 48,0 КГц
Битовая глубина : 16 бит
Метод сжатия : С потерями
Размер потока : 61,3 Мбайт (11%)
Выравнивание : Разделение по промежуткам
Продолжительность промежутка : 40 мс. (1,00 видеокадр)
Время предзагрузки промежутка : 500 мс.









Скриншоты




[img]http://i4.imageban.ru/thumbs/2014.05.02/396c576d07f7eb1f20741a3ef2c4971c.png[/img][img]http://i6.imageban.ru/thumbs/2014.05.02/3b9cab9b7b605bac036318d27b6dd537.png[/img][img]http://i4.imageban.ru/thumbs/2014.05.02/5a8ade3e1c756fddbefad0879aec3ece.png" alt="http://i6.imageban.ru/thumbs/2014.05.02/f1de3c1f8e4d0e297cf3d3639d728e67.png[/img][img]http://i4.imageban.ru/thumbs/2014.05.02/396c576d07f7eb1f20741a3ef2c4971c.png[/img][img]http://i6.imageban.ru/thumbs/2014.05.02/3b9cab9b7b605bac036318d27b6dd537.png[/img][img]http://i4.imageban.ru/thumbs/2014.05.02/5a8ade3e1c756fddbefad0879aec3ece.png" />
Скриншоты
Похожие файлы
Загрузка / Обновление
КатегорияСериалы RSS лента
Просмотров212 раз (a)
Взят2 раз (a)
Файлы30
Размер16.13 GB (17,324,494,848 байт)
Добавлен
РаздалViKa  (Искать торренты)
Участники
Участники - Загрузка / Обновление
Просматривают Просматривают Загрузка...

-†- ¿? -†-
« Предыдущая - † Страница † - Следующая »

:: Список Комментариев
Нет комментариев.

 Нет комментариев
Вам запрещенно редактировать, создать или удалять комментарии.
shpv© 2007-2014
Страничка сформирована за 0.019 секунд.
Яндекс.Метрика Rambler's Top100