скачать торрент трекер Friends
 
 Главная  •  Торренты  •  Новые релизы  •  Форум  •   •  Персоны кино  •  Правила  •  ЧаВо

Язык интерфейса
Язык интерфейса:


Привет, Гость
[15] из [15]
Введите Логин:
Введите Пароль:
Регистрация
Восстановить Пароль

Линки
АнекдотыБанкоматВсе теги / меткиДополнительные услугиТехподдержка

Главное Меню
 Главная Торренты Релизы за сегодня Персоны кино Запросы / Предложения (3) Правила ЧаВо Проверка BB кодов Топ 10 Архив новостей Прошлые опросы Форматы файлов Группы Последние комментарии Техподдержка

:: Детали раздачи

До свидания, мальчики (Подольские курсанты) / Серии: 1-13 из 16 (Сергей Крутин)

Скачать
Магнет
ПомощьКак скачать раздачу
Поделиться
Теги / Меткивоенный фильм, драма
Постер
ОписаниеГод выпуска: 2014
Производство: "Пирамида"
Жанр: военный фильм, драма
Продолжительность: ~ 00:49:00
Субтитры: Нет

Режиссёр: Сергей Крутин

В ролях: Владимир Вдовиченков, Мария Шукшина, Андрей Соколов, Елена Ксенофонтова, Артур Ваха, Анатолий Кот, Екатерина Волкова, Вячеслав Манучаров, Александр Наумов, Елизавета Пащенко, Илья Шляга, Лина Шишова, Евгений Капорин

Описание: 1941 год, последние мирные дни... Бывший детдомовец Саша Воронов приезжает в небольшой городок под Москвой поступать в местное артиллерийское училище. Здесь у него появляются новые друзья - Надя, Гена и Коля, вместе с которыми он разоблачает завербованного агента немецкой разведки.

Начинается война. Саша, Гена и Коля становятся курсантами артиллерийского училища. И, несмотря на то, что постигать военную науку им приходится по тринадцать часов в день, они успевают и влюбляться, и между собой конфликтовать, и в самоволку бегать...

Осенью 1941 года нависает угроза выхода немецких войск непосредственно к Москве. 5 октября курсантов и преподавателей артиллерийского училища поднимают по тревоге. Им предстоит любой ценой задержать продвижение врага до подхода резервов Верховного Командования. Все мальчишки уходят в числе первых...





Доп. информация: Реклама отсутствует!





Релиз группы:: http://i1.imageban.ru/out/2013/12/25/6757870fb792b4dbe53d867619848c94.png





Все раздачи сериала: http://rutracker.org/forum/tracker.php?f=9&nm=Д...ания,%20мальчики
Сэмпл: https://cloud.mail.ru/public/7681a30d7193/%D0%94%D0...Rip. by.simka.avi

Качество: SATRip
Формат: AVI
Видео кодек: XviD
Аудио кодек: MP3
Видео: 704x368, 25 fps, XviD, ~1444 kbps, 0.211 bit/pixel
Аудио: 48 kHz, MPEG Layer 3, 2 ch, 192 kbps

MI
Общее
Полное имя : Y:\Сериалы 2014\До свидания, мальчики (Подольские курсанты) (2014)\До свидания, мальчики (Подольские курсанты) (2014).torrent
Размер файла : 1,99 Кбайт

Общее
Полное имя : Y:\Сериалы 2014\До свидания, мальчики (Подольские курсанты) (2014)\До свидания, мальчики (Подольские курсанты).(01.seriya).2014.XviD.SATRip.by.simka.avi
Формат : AVI
Формат/Информация : Audio Video Interleave
Размер файла : 584 Мбайт
Продолжительность : 49 м.
Общий поток : 1645 Кбит/сек
Программа кодирования : VirtualDubModRus 1.5.10.2 (build 2542/release)
Библиотека кодирования : VirtualDubMod build 2542/release

Видео
Идентификатор : 0
Формат : MPEG-4 Visual
Профиль формата : Advanced Simple@L5
Параметр BVOP формата : 1
Параметр QPel формата : Нет
Параметр GMC формата : Без точки перехода
Параметр матрицы формата : Default (MPEG)
Идентификатор кодека : XVID
Идентификатор кодека/Подсказка : XviD
Продолжительность : 49 м.
Битрейт : 1444 Кбит/сек
Ширина : 704 пикселя
Высота : 368 пикселей
Соотношение сторон : 1,913
Частота кадров : 25,000 кадров/сек
Цветовое пространство : YUV
Субдискретизация насыщенности : 4:2:0
Битовая глубина : 8 бит
Тип развёртки : Прогрессивная
Метод сжатия : С потерями
Бит/(Пиксели*Кадры) : 0.223
Размер потока : 513 Мбайт (88%)
Библиотека кодирования : XviD 1.2.1 (UTC 2008-12-04)

Аудио
Идентификатор : 1
Формат : MPEG Audio
Версия формата : Version 1
Профиль формата : Layer 3
Режим : Joint stereo
Идентификатор кодека : 55
Идентификатор кодека/Подсказка : MP3
Продолжительность : 49 м.
Вид битрейта : Постоянный
Битрейт : 192 Кбит/сек
Каналы : 2 канала
Частота : 48,0 КГц
Метод сжатия : С потерями
Размер потока : 68,2 Мбайт (12%)
Выравнивание : Соединение по промежуткам
Продолжительность промежутка : 40 мс. (1,00 видеокадр)
Время предзагрузки промежутка : 504 мс.
Библиотека кодирования : LAME3.99r
Настройки программы : -m j -V 4 -q 2 -lowpass 18.6 -b 192


Скриншоты
http://firepic.org/?v=3.2014-04-28_dizudykdn2sq.png
http://firepic.org/?v=3.2014-04-28_sm8tw7wdk7gc.png
http://firepic.org/?v=3.2014-04-28_3vfu81yfpiet.png
http://firepic.org/?v=3.2014-04-28_lsk593g7m397.png
http://firepic.org/?v=3.2014-04-28_d6cgxyl3it7o.png
http://firepic.org/?v=3.2014-04-28_0fxey0w94v2a.png
http://firepic.org/?v=3.2014-04-28_rd4kbzn83tur.png
http://firepic.org/?v=3.2014-04-28_6nze8ws73faq.png
http://firepic.org/?v=3.2014-04-28_exo9ig9zk20l.png
http://firepic.org/?v=3.2014-04-28_rnjk8523hr7e.png
http://firepic.org/?v=3.2014-04-28_dpb7ucmz12x9.png
http://firepic.org/?v=3.2014-04-28_8wyhoyt7b4g9.png
http://firepic.org/?v=3.2014-04-28_x825oy0sdboy.png


-------------

Внимание! Раздача ведётся путём добавления новых выпусков
При каждом добавлении создаётся новый торрент. Чтобы начать докачку нового выпуска, пользователям необходимо сделать следующее:
П остановить скачивание;
П удалить старый торрент у себя из клиента (старые выпуски удалять не надо);
П скачать новый торрент и запустить его у себя в клиенте вместо старого, при этом указать клиенту путь в старую папку куда и должно происходить скачивание новых выпусков;
П ваш клиент при запуске должен произвести хеширование (проверку) старой папки (если не производит сам - помогите ему сделать это), и будет докачивать только те выпуски, которых у вас ещё нет. Старые выпуски при этом не удаляются, а продолжают раздаваться!, Конец фильма!
П Eсли вы уже удалили старые выпуски, то предотвратить повторную закачку старых выпусков можно, отжав галочку в соответсвующих местах при запуске нового торрента.

Добавлена 13-я серия, Продолжения по 1-й серии!!!
Похожие файлы
Загрузка / Обновление
КатегорияСериалы RSS лента
Просмотров243 раз (a)
Взят1 раз (a)
Файлы13
Размер7.00 GB (7,515,844,608 байт)
ТраффикСкачано: 8.56 GB
Добавлен
РаздалViKa  (Искать торренты)
Участники
Участники - Загрузка / Обновление
Просматривают Просматривают Загрузка...

-†- ¿? -†-
« Предыдущая - † Страница † - Следующая »

:: Список Комментариев
Нет комментариев.

 Нет комментариев
Вам запрещенно редактировать, создать или удалять комментарии.
shpv© 2007-2014
Страничка сформирована за 0.488 секунд.
Яндекс.Метрика Rambler's Top100