скачать торрент трекер Friends
 
 Главная  •  Торренты  •  Новые релизы  •  Форум  •   •  Персоны кино  •  Правила  •  ЧаВо

Язык интерфейса
Язык интерфейса:


Привет, Гость
[15] из [15]
Введите Логин:
Введите Пароль:
Регистрация
Восстановить Пароль

Линки
АнекдотыБанкоматВсе теги / меткиДополнительные услугиТехподдержка

Главное Меню
 Главная Торренты Релизы за сегодня Персоны кино Запросы / Предложения (3) Правила ЧаВо Проверка BB кодов Топ 10 Архив новостей Прошлые опросы Форматы файлов Группы Последние комментарии Техподдержка

:: Детали раздачи
Торрент раздача является мультитрекерной — учтите, количество раздающих не будет совпадать с количеством участников на сайте (скачивание на клиентской стороне зависит от настроек uTorrent клиент программы, настройки -> Включить DHT, Обмен пирами и Поиск лок-х пиров).
Если висит надпись, пиры по нулям - не бойтесь, возможность скачать повторно торрент раздачу - есть. Попробуйте, в случае отказа - прокоментируйте или нажмите на "Позвать скачавших".

Очень плохие парни / Big Bad Wolves (Аарон Кешалес / Aharon Keshales, Навот Папушадо / Navot Papushado) [2013, Израиль, триллер, комедия, HDRip] MVO + Original Hebrew

Скачать
Магнет
ПомощьКак скачать раздачу
Поделиться
Теги / Меткитриллер, криминал
Постер
ОписаниеГод выпуска: 2013 г.
Страна: Израиль, United Channel Movies
Жанр: Триллер, криминал
Продолжительность: 01:49:43
Перевод: Профессиональный (многоголосный) [Лицензия]
Cубтитры: нет
Оригинальная аудиодорожка: иврит

Режиссер: Аарон Кешалес / Aharon Keshales, Навот Папушадо / Navot Papushado

В ролях: Лиор Ашкенази, Ротем Кейнан, Цахи Град, Довале Гликман, Менаш Ной, Двир Бенедек, Каис Насеф, Нати Клюгер, Ами Вайнберг, Гай Адлер

Описание: Многие начинают говорить, после второго сломанного пальца. Это правило использует полицейский, чтоб добыть признания у подозреваемого в жутких убийствах детей, преподователя начальных классов. К нему присоединяется обезумевший от горя отец, одной из погибших девочек. Но когда пытки заходят слишком далеко, полицейский начинает сомневаться, что преподователь является убийцей,но отец погибшей девочки ничего не хочет слышать. А может это отец является маньяком, успел подумать полицейский, прежде чем оказаться связанным рядом с преподователем.

http://sendfile.su/975890 сэмпл

Качество: HDRip
Формат видео: AVI

Видео кодек: XviD
Аудио кодек: AC3

Видео: 720x304 (2.37:1), 23.976 fps, XviD MPEG-4 ~1961 kbps avg, 0.37 bit/pixel
Аудио #1: 48 kHz, AC3 Dolby Digital, 3/2 (L,C,R,l,r) + LFE ch, ~448 kbps Russian
Аудио #2: 48 kHz, AC3 Dolby Digital, 3/2 (L,C,R,l,r) + LFE ch, ~448 kbps Hebrew

MI
Формат : AVI
Формат/Информация : Audio Video Interleave
Профиль формата : OpenDML
Размер файла : 2,19 Гбайт
Продолжительность : 1 ч. 49 м.
Общий поток : 2864 Кбит/сек
Программа кодирования : VirtualDubMod 1.5.10.2 (build 2540/release)
Библиотека кодирования : VirtualDubMod build 2540/release

Видео
Идентификатор : 0
Формат : MPEG-4 Visual
Профиль формата : Advanced Simple@L5
Параметр BVOP формата : 2
Параметр QPel формата : Нет
Параметр GMC формата : Без точки перехода
Параметр матрицы формата : Default (MPEG)
Идентификатор кодека : XVID
Идентификатор кодека/Подсказка : XviD
Продолжительность : 1 ч. 49 м.
Битрейт : 1950 Кбит/сек
Ширина : 720 пикселей
Высота : 304 пикселя
Соотношение сторон : 2,35:1
Частота кадров : 23,976 кадра/сек
Цветовое пространство : YUV
Субдискретизация насыщенности : 4:2:0
Битовая глубина : 8 бит
Тип развёртки : Прогрессивная
Метод сжатия : С потерями
Бит/(Пиксели*Кадры) : 0.372
Размер потока : 1,49 Гбайт (68%)
Библиотека кодирования : XviD 1.2.1 (UTC 2008-12-04)

Аудио #1
Идентификатор : 1
Формат : AC-3
Формат/Информация : Audio Coding 3
Расширение режима : CM (complete main)
Параметр Endianness формата : Big
Идентификатор кодека : 2000
Продолжительность : 1 ч. 49 м.
Вид битрейта : Постоянный
Битрейт : 448 Кбит/сек
Каналы : 6 каналов
Расположение каналов : Front: L C R, Side: L R, LFE
Частота : 48,0 КГц
Битовая глубина : 16 бит
Метод сжатия : С потерями
Размер потока : 352 Мбайт (16%)
Выравнивание : Разделение по промежуткам
Продолжительность промежутка : 42 мс. (1,00 видеокадр)
Время предзагрузки промежутка : 500 мс.

Аудио #2
Идентификатор : 2
Формат : AC-3
Формат/Информация : Audio Coding 3
Расширение режима : CM (complete main)
Параметр Endianness формата : Big
Идентификатор кодека : 2000
Продолжительность : 1 ч. 49 м.
Вид битрейта : Постоянный
Битрейт : 448 Кбит/сек
Каналы : 6 каналов
Расположение каналов : Front: L C R, Side: L R, LFE
Частота : 48,0 КГц
Битовая глубина : 16 бит
Метод сжатия : С потерями
Размер потока : 352 Мбайт (16%)
Выравнивание : Разделение по промежуткам
Продолжительность промежутка : 42 мс. (1,00 видеокадр)
Время предзагрузки промежутка : 500 мс.


Скриншоты
[img]http://i61.fastpic.ru/thumb/2014/0505/76/4489d5edd8e94d50b87aa315bdfe8d76.jpeg" alt="http://i62.fastpic.ru/thumb/2014/0505/8e/ae0486f987e92ea95a7de8647b876d8e.jpeg[/img][img]http://i61.fastpic.ru/thumb/2014/0505/76/4489d5edd8e94d50b87aa315bdfe8d76.jpeg" /> http://i61.fastpic.ru/thumb/2014/0505/17/d8acdf430853b1067a0d406c44a2d817.jpeg http://i61.fastpic.ru/thumb/2014/0505/a3/b5edc75b18c2670b3fa126e3c9a558a3.jpeg
Похожие файлы
Загрузка / Обновление
КатегорияФильмы AVI RSS лента
Просмотров229 раз (a)
Взят2 раз (a)
Файлы1
Размер2.19 GB (2,356,860,928 байт)
ТраффикОтдано: 1.36 MB
Добавлен
РаздалViKa  (Искать торренты)
Участники
Участники - Загрузка / Обновление
Просматривают Просматривают Загрузка...

-†- ¿? -†-
« Предыдущая - † Страница † - Следующая »

:: Список Комментариев
Нет комментариев.

 Нет комментариев
Вам запрещенно редактировать, создать или удалять комментарии.
shpv© 2007-2014
Страничка сформирована за 0.093 секунд.
Яндекс.Метрика Rambler's Top100