скачать торрент трекер Friends
 
 Главная  •  Торренты  •  Новые релизы  •  Форум  •   •  Персоны кино  •  Правила  •  ЧаВо

Язык интерфейса
Язык интерфейса:


Привет, Гость
[15] из [15]
Введите Логин:
Введите Пароль:
Регистрация
Восстановить Пароль

Линки
АнекдотыБанкоматВсе теги / меткиДополнительные услугиТехподдержка

Главное Меню
 Главная Торренты Релизы за сегодня Персоны кино Запросы / Предложения (3) Правила ЧаВо Проверка BB кодов Топ 10 Архив новостей Прошлые опросы Форматы файлов Группы Последние комментарии Техподдержка

:: Детали раздачи
Торрент раздача является мультитрекерной — учтите, количество раздающих не будет совпадать с количеством участников на сайте (скачивание на клиентской стороне зависит от настроек uTorrent клиент программы, настройки -> Включить DHT, Обмен пирами и Поиск лок-х пиров).
Если висит надпись, пиры по нулям - не бойтесь, возможность скачать повторно торрент раздачу - есть. Попробуйте, в случае отказа - прокоментируйте или нажмите на "Позвать скачавших".

Я тебя никогда не забуду / Серии: 1 - 8 из 8 (Алексей Рудаков)

Скачать
Магнет
ПомощьКак скачать раздачу
Поделиться
Теги / Меткимелодрама
Описаниеhttp://i20.fastpic.ru/big/2011/0419/b7/761a63a7f8b9d59bdf49c216b3a1d4b7.jpgГод выпуска: 2011
Производство: Студия "Арт-Базар" по заказу РТР
Жанр: Мелодрама
Продолжительность: ~ 00:45:00 серия
Субтитры: Отсутствуют

Режиссёр: Алексей Рудаков

В ролях: Сергей Астахов, Юлия Снигирь, Александр Лымарев, Иван Рудаков, Екатерина Вуличенко, Ольга Сумская, Олег Примогенов, Владимир Башкиров, Виталий Борисюк, Владимир Горянский, Дария Боцманова, Алексей Смолка, Максим Чумак

Описание: Действие картины разворачивается в период с 1945 года по начало девяностых.
Это история любви, которая побеждает, несмотря на, казалось бы, непреодолимые препятствия, несмотря на смерть, время и страшное предательство. И одновременно - это история безумной алчности, которая приводит одного из главных героев к краху.

Релиз: http://i2.fastpic.ru/big/2010/0213/e8/2b174749f23d6e532f2854ecb44e95e8.gif

http://static.rutracker.org/smiles/icon_arrow.gif
Все раздачи сериала
http://static.rutracker.org/smiles/icon_arrow.gif
[b]СЭМПЛ[/b]

Качество: DVB
Формат: MPEG
Видео кодек: MPEG2
Аудио кодек: MPEG1 Layer 2
Видео: MPEG2 Video 720x576 (4:3) 25.00fps 5 359 Kbps, 0.517 bit/pixel
Аудио: MPEG Audio 48000Hz stereo 256 Кбит/сек

MI
Complete name : F:\TORENTRAZDACHI\Я тебя никогда не забуду_DVB_by_CLIPMAN\Я тебя никогда не забуду.01_DVB_by_CLIPMAN.mpg
Format : MPEG-PS
File size : 1.74 GiB
Duration : 43mn 30s
Overall bit rate : 5 729 Kbps

Video
ID : 224 (0xE0)
Format : MPEG Video
Format version : Version 2
Format profile : Main@Main
Format settings, BVOP : Yes
Format settings, Matrix : Default
Duration : 43mn 30s
Bit rate mode : Variable
Bit rate : 5 359 Kbps
Nominal bit rate : 10 000 Kbps
Width : 720 pixels
Height : 576 pixels
Display aspect ratio : 4:3
Frame rate : 25.000 fps
Standard : PAL
Color space : YUV
Chroma subsampling : 4:2:0
Bit depth : 8 bits
Scan type : Interlaced
Scan order : Top Field First
Bits/(Pixel*Frame) : 0.517
Stream size : 1.63 GiB (94%)

Audio
ID : 192 (0xC0)
Format : MPEG Audio
Format version : Version 1
Format profile : Layer 2
Duration : 43mn 30s
Bit rate mode : Constant
Bit rate : 256 Kbps
Channel(s) : 2 channels
Sampling rate : 48.0 KHz
Stream size : 79.7 MiB (4%)


Внимание.!!!Раздача ведётся путём добавления новых серий
Внимание! Раздача ведётся путём добавления новых серий; при каждом добавлении создётся новый торрент. Чтобы начать докачку новой серии, пользователям необходимо сделать следующее:
(1) остановить скачивание,
(2) удалить старый торрент у себя из клиента (старые серии удалять не надо),
(3) скачать новый торрент и запустить его у себя в клиенте вместо старого, при этом указать клиенту путь в старую папку куда и должно происходить скачивание новых серий.
Ваш клиент при этом должен произвести хеширование (проверку) старой папки (если не производит сам - помогите ему сделать это), и будет докачивать только те серии которых у вас ещё нет. Старые серии при этом не удаляются, а продолжают раздаваться!
Eсли вы уже удалили старые серии, то предотвратить повторную закачку старых серий можно, отжав галочку в соответсвующих местах при запуске нового торрента. По возможности, желательно не удалять старые серии как можно дольше чтобы релизёр не столько продолжал раздавать старые серии, а смог сконцентрироваться на новых.


Скриншоты
http://i20.fastpic.ru/thumb/2011/0419/b8/a80c599791df57253c1a07db552999b8.jpeg http://i20.fastpic.ru/thumb/2011/0419/38/e1119e86fff4b47a077929b802e48638.jpeg http://i20.fastpic.ru/thumb/2011/0419/6f/64bf95391ab4a17e39c51ec79f8f906f.jpeg http://i20.fastpic.ru/thumb/2011/0419/6f/d82994e5e5dac8eb7bea0572e71bbb6f.jpeg http://i20.fastpic.ru/thumb/2011/0419/ba/7f2ed99ce7867b84d5f3cdfe0c27b1ba.jpeg
Похожие файлы
Загрузка / Обновление
КатегорияСериалы RSS лента
Просмотров88 раз (a)
Взят3 раз (a)
Файлы8
Размер13.91 GB (14,935,877,632 байт)
Добавлен
РаздалViKa  (Искать торренты)
Участники
Участники - Загрузка / Обновление
Просматривают Просматривают Загрузка...

-†- ¿? -†-
« Предыдущая - † Страница † - Следующая »

:: Список Комментариев
Нет комментариев.

 Нет комментариев
Вам запрещенно редактировать, создать или удалять комментарии.
shpv© 2007-2014
Страничка сформирована за 0.160 секунд.
Яндекс.Метрика Rambler's Top100