скачать торрент трекер Friends
 
 Главная  •  Торренты  •  Новые релизы  •  Форум  •   •  Персоны кино  •  Правила  •  ЧаВо

Язык интерфейса
Язык интерфейса:


Привет, Гость
[15] из [15]
Введите Логин:
Введите Пароль:
Регистрация
Восстановить Пароль

Линки
АнекдотыБанкоматВсе теги / меткиДополнительные услугиТехподдержка

Главное Меню
 Главная Торренты Релизы за сегодня Персоны кино Запросы / Предложения (3) Правила ЧаВо Проверка BB кодов Топ 10 Архив новостей Прошлые опросы Форматы файлов Группы Последние комментарии Техподдержка

:: Детали раздачи
Торрент раздача является мультитрекерной — учтите, количество раздающих не будет совпадать с количеством участников на сайте (скачивание на клиентской стороне зависит от настроек uTorrent клиент программы, настройки -> Включить DHT, Обмен пирами и Поиск лок-х пиров).
Если висит надпись, пиры по нулям - не бойтесь, возможность скачать повторно торрент раздачу - есть. Попробуйте, в случае отказа - прокоментируйте или нажмите на "Позвать скачавших".

Легавый / Серии: 1-24 из 24 (Рустам Уразаев, Сергей Артимович)

Скачать
Магнет
ПомощьКак скачать раздачу
Поделиться
Теги / Меткидетектив
Постер
ОписаниеГод выпуска: 2012
Производство: Star Media
Жанр: детектив
Продолжительность: ~0:45:00 серия
Субтитры: отсутствуют

Режиссёр: Рустам Уразаев, Сергей Артимович

В ролях: Эдуард Флёров, Михаил Павлик, Николай Козак, Оксана Гуляева, Анастасия Макеева, Елена Коровчук, Анатолий Кот, Игорь Филиппов, Александр Резалин, Михаил Горевой, Борис Щербаков, Геннадий Венгеров, Сергей Варчук, Алексей Дмитриев, Игорь Ясулович, Алексей Секирин, Владислав Резник, Михаил Асанкин, Мария Шамшина, Евгений Мундум, Денис Варенов, Максим Важов, Александр Никольский, Мария Кунах, Юрий Брешин, Евгения Дмитриева, Елена Полякова, Сослан Фидаров, Олег Новичев, Сергей Шарифуллин, Дмитрий Лавров, Сергей Походаев, Евгений Березовский, Вера Смолина, Джамболат Сланов

Описание: 1948 год. Бывший фронтовой разведчик, капитан Юрий Козырев, попавший в плен в последние дни войны и получивший за это срок, выходит из лагеря. Теперь он полностью оправдан и восстановлен в правах.
По дороге домой Козырев видит, что на склад напали бандиты. Фронтовая выучка помогает ему обезвредить банду. Майор милиции Грунин предлагает Юрию работу в органах, на Петровке, но Козырев хочет домой, в Петрово.
Но возвращение домой не приносит ему большой радости. Юрий узнает, что его отец пропал без вести на фронте, мать умерла, а любимая девушка Лариса вышла замуж за другого...
На завод, где Козырев работал до войны техником, с политической статьей, пусть даже и полностью реабилитированным, его обратно не берут. И тогда Козырев идет в милицию, где принимает предложение начальника отделения майора Докукина стать стажером.

Релиз: http://i2.imageban.ru/out/2012/11/20/e578a357671f0643cf4662832e92df53.png

Все раздачи сериала / Сэмпл



Качество: DVB (ABS 1 at 75.0°E)
Формат: MPEG-PS
Видео кодек: MPEG2
Аудио кодек: MP2
Видео: MPEG 2, 720x576 (4:3), 25.000 fps, 5142 Kbps (0.496 bit/pixel)
Аудио: MP2, 48.0 KHz, 2 ch, 192 Kbps, CBR

MediaInfo


ОбщееПолное имя : L:\Раздачи\Легавый\Легавый.01.mpgФормат : MPEG-PSРазмер файла : 1,70 ГбайтПродолжительность : 44 м.Режим общего битрейта : ПеременныйОбщий поток : 5441 Кбит/секБиблиотека кодирования : (c) 1998-2012 Womble Multimedia, Inc. / MPEG Video Wizard DVD 5.0.1.100 (03/2011) / Sep 7 2012

ВидеоИдентификатор : 224 (0xE0)Формат : MPEG VideoВерсия формата : Version 2Профиль формата : Main@MainПараметр BVOP формата : ДаПараметр матрицы формата : ВыборочнаяПараметр GOP формата : VariableПродолжительность : 44 м.Вид битрейта : ПеременныйБитрейт : 5140 Кбит/секМаксимальный битрейт : 15,0 Мбит/секШирина : 720 пикселейВысота : 576 пикселейСоотношение сторон : 4:3Частота кадров : 25,000 кадров/секСтандарт вещания : PALЦветовое пространство : YUVСубдискретизация насыщенности : 4:2:0Битовая глубина : 8 битТип развёртки : ЧересстрочнаяПорядок развёртки : Верхнее поле первоеМетод сжатия : С потерямиБит/(Пиксели*Кадры) : 0.496Размер потока : 1,60 Гбайт (94%)Выравнивание : (c) 1998-2012 Womble Multimedia, Inc. / MPEG Video Wizard DVD 5.0.1.100 (03/2011) / Sep 7 2012Заголовок : (c) 1998-2012 Womble Multimedia, Inc. / MPEG Video Wizard DVD 5.0.1.100 (03/2011) / Sep 7 2012Библиотека кодирования : (c) 1998-2012 Womble Multimedia, Inc. / MPEG Video Wizard DVD 5.0.1.100 (03/2011) / Sep 7 2012

АудиоИдентификатор : 192 (0xC0)Формат : MPEG AudioВерсия формата : Version 1Профиль формата : Layer 2Продолжительность : 44 м.Вид битрейта : ПостоянныйБитрейт : 192 Кбит/секКаналы : 2 каналаЧастота : 48,0 КГцМетод сжатия : С потерямиЗадержка видео : -40 мс.Размер потока : 61,3 Мбайт (4%)

Меню



Скриншоты
http://i5.imageban.ru/out/2012/12/25/145a627a03ededce9ba64536498f60b5.png
http://i5.imageban.ru/out/2012/12/25/30348e7f70a963ed61d79b8546a63c5d.png
http://i5.imageban.ru/out/2012/12/25/f25e9dd07e51554501999080548f02bc.png
http://i1.imageban.ru/out/2012/12/25/2adcd38550185839a9ad7394151748b3.png


http://i5.imageban.ru/out/2012/12/25/bcd76d07aa67c8f9e071e4d251423825.png
http://i5.imageban.ru/out/2012/12/25/a77c9dea8e1559da4f1e126745c3aaa6.png
http://i5.imageban.ru/out/2012/12/25/288301ed2c05bb63694334ce4a52d459.png
http://i1.imageban.ru/out/2012/12/25/199956b3d478a63eceafa9723f1fa92e.png



Внимание! Раздача ведётся путём добавления новых серий
Внимание! Раздача ведётся путём добавления новых серий; при каждом добавлении создаётся новый торрент. Чтобы начать докачку новой серии, пользователям необходимо сделать следующее:
(1) остановить скачивание,
(2) удалить старый торрент у себя из клиента (старые серии удалять не надо),
(3) скачать новый торрент и запустить его у себя в клиенте вместо старого, при этом указать клиенту путь в старую папку куда и должно происходить скачивание новых серий.
Ваш клиент при этом должен произвести хеширование (проверку) старой папки (если не производит сам - помогите ему сделать это), и будет докачивать только те серии которых у вас ещё нет. Старые серии при этом не удаляются, а продолжают раздаваться!
Eсли вы уже удалили старые серии, то предотвратить повторную закачку старых серий можно, отжав галочку в соответствующих местах при запуске нового торрента. По возможности, желательно не удалять старые серии как можно дольше чтобы релизёр не столько продолжал раздавать старые серии, а смог сконцентрироваться на новых
Скриншоты
Похожие файлы
Загрузка / Обновление
КатегорияСериалы RSS лента
Просмотров149 раз (a)
Взят2 раз (a)
Файлы24
Размер40.79 GB (43,796,129,792 байт)
Добавлен
РаздалViKa  (Искать торренты)
Участники
Участники - Загрузка / Обновление
Просматривают Просматривают Загрузка...

-†- ¿? -†-
« Предыдущая - † Страница † - Следующая »

:: Список Комментариев
Нет комментариев.

 Нет комментариев
Вам запрещенно редактировать, создать или удалять комментарии.
shpv© 2007-2014
Страничка сформирована за 0.099 секунд.
Яндекс.Метрика Rambler's Top100