скачать торрент трекер Friends
 
 Главная  •  Торренты  •  Новые релизы  •  Форум  •   •  Персоны кино  •  Правила  •  ЧаВо

Язык интерфейса
Язык интерфейса:


Привет, Гость
[15] из [15]
Введите Логин:
Введите Пароль:
Регистрация
Восстановить Пароль

Линки
АнекдотыБанкоматВсе теги / меткиДополнительные услугиТехподдержка

Главное Меню
 Главная Торренты Релизы за сегодня Персоны кино Запросы / Предложения (3) Правила ЧаВо Проверка BB кодов Топ 10 Архив новостей Прошлые опросы Форматы файлов Группы Последние комментарии Техподдержка

:: Детали раздачи
Торрент раздача является мультитрекерной — учтите, количество раздающих не будет совпадать с количеством участников на сайте (скачивание на клиентской стороне зависит от настроек uTorrent клиент программы, настройки -> Включить DHT, Обмен пирами и Поиск лок-х пиров).
Если висит надпись, пиры по нулям - не бойтесь, возможность скачать повторно торрент раздачу - есть. Попробуйте, в случае отказа - прокоментируйте или нажмите на "Позвать скачавших".

Умник / Сезон: 1 / Серии: 1-16 из 16 (Тимур Алпaтов)

Скачать
Магнет
ПомощьКак скачать раздачу
Поделиться
Теги / Меткидетектив
Постер
ОписаниеГод выпуска: 2014
Производство: Марс Медиа
Жанр: Детектив
Продолжительность: ~ 00:49:00
Субтитры: Нет

Режиссёр: Тимур Алпатов

В ролях: Александр Гордон, Екатерина Вуличенко,[url=persons.php?n=Мария Романова] Мария Романова[/url], Елена Санаева, Евгений Антропов, Мария Романова, Эдуард Флёров, Андрей Покатилов, Василий Брыков, Надежда Азоркина

Описание: Герой «Умника», популярный писатель Роман Страхов потерял вдохновение. За две недели он должен сдать новую книгу в издательство и с целью изучения материала проводит дни с сотрудниками следственного отдела. Строгий и очень симпатичный следователь Женя Огарева становится главным героем не только сюжетов Страхова, но и всей его жизни.





Доп. информация: Реклама отсутствует!





Релиз группы:: http://static.rutracker.org/pic/rgrs/logo.png





Все раздачи сериала: http://rutracker.org/forum/tracker.php?f=9&nm=Умник
Сэмпл: https://cloud.mail.ru/public/cb6d0c68ddd0/Ymnik%20DVB.mpg

Качество: DVB
Формат: MPEG
Видео кодек: MPEG2
Аудио кодек: MPEG1
Видео: MPEG2 Video 720x576 (4:3) 25.00fps ~2464 Kbps (0.238 bit/pixel)
Аудио: MPEG Audio 48000Hz 2 channels 192 Кбит/сек

MI
Общее
Полное имя : W:\Video1\Умник\Умник 01.mpg
Формат : MPEG-PS
Размер файла : 979 Мбайт
Продолжительность : 50 м.
Режим общего битрейта : Переменный
Общий поток : 2710 Кбит/сек
Библиотека кодирования : (c) 1998-2010 Womble Multimedia, Inc. / MPEG Video Wizard DVD 5.0.0.114 (01/2010) / Nov 13 2010

Видео
Идентификатор : 224 (0xE0)
Формат : MPEG Video
Версия формата : Version 2
Профиль формата : Main@Main
Параметр BVOP формата : Да
Параметр матрицы формата : Выборочная
Параметр GOP формата : M=3, N=12
Продолжительность : 50 м.
Вид битрейта : Переменный
Битрейт : 2464 Кбит/сек
Максимальный битрейт : 5000 Кбит/сек
Ширина : 720 пикселей
Высота : 576 пикселей
Соотношение сторон : 4:3
Частота кадров : 25,000 кадров/сек
Стандарт вещания : PAL
Цветовое пространство : YUV
Субдискретизация насыщенности : 4:2:0
Битовая глубина : 8 бит
Тип развёртки : Чересстрочная
Порядок развёртки : Верхнее поле первое
Метод сжатия : С потерями
Бит/(Пиксели*Кадры) : 0.238
TimeCode_FirstFrame : 00:00:00:00
TimeCode_Source : Group of pictures header
Размер потока : 890 Мбайт (91%)
Библиотека кодирования : (c) 1998-2010 Womble Multimedia, Inc. / MPEG Video Wizard DVD 5.0.0.114 (01/2010) / Nov 13 2010

Аудио
Идентификатор : 192 (0xC0)
Формат : MPEG Audio
Версия формата : Version 1
Профиль формата : Layer 2
Продолжительность : 50 м.
Вид битрейта : Постоянный
Битрейт : 192 Кбит/сек
Каналы : 2 канала
Частота : 48,0 КГц
Метод сжатия : С потерями
Размер потока : 69,4 Мбайт (7%)


Скриншоты
http://firepic.org/?v=6.2014-04-29_oma7f0gbv9lq.png
http://firepic.org/?v=6.2014-04-29_ymwdbmv646yl.png
http://firepic.org/?v=6.2014-04-29_vzxdmir2vry2.png
http://firepic.org/?v=6.2014-04-29_r53c3etrfvtr.png
http://firepic.org/?v=6.2014-04-29_gokbcvx2i1er.png
http://firepic.org/?v=6.2014-04-29_i7d1u5hpwki2.png
http://firepic.org/?v=6.2014-04-29_4zi9k2prf1ti.png
Похожие файлы
Загрузка / Обновление
КатегорияСериалы RSS лента
Просмотров519 раз (a)
Взят2 раз (a)
Файлы16
Размер14.88 GB (15,979,012,096 байт)
Добавлен
РаздалViKa  (Искать торренты)
Участники
Участники - Загрузка / Обновление
Просматривают Просматривают Загрузка...

-†- ¿? -†-
« Предыдущая - † Страница † - Следующая »

:: Список Комментариев
Нет комментариев.

 Нет комментариев
Вам запрещенно редактировать, создать или удалять комментарии.
shpv© 2007-2014
Страничка сформирована за 0.075 секунд.
Яндекс.Метрика Rambler's Top100