скачать торрент трекер Friends
 
 Главная  •  Торренты  •  Новые релизы  •  Форум  •   •  Персоны кино  •  Правила  •  ЧаВо

Язык интерфейса
Язык интерфейса:


Привет, Гость
[15] из [15]
Введите Логин:
Введите Пароль:
Регистрация
Восстановить Пароль

Линки
АнекдотыБанкоматВсе теги / меткиДополнительные услугиТехподдержка

Главное Меню
 Главная Торренты Релизы за сегодня Персоны кино Запросы / Предложения (3) Правила ЧаВо Проверка BB кодов Топ 10 Архив новостей Прошлые опросы Форматы файлов Группы Последние комментарии Техподдержка

:: Детали раздачи

Жена офицера / Серии: 1-8 из 8 (Сергей Басин)

Скачать
Магнет
ПомощьКак скачать раздачу
Поделиться
Теги / Меткимелодрама
Постер
ОписаниеГод выпуска: 2013
Производство: Вертикаль фильм
Жанр: мелодрама
Продолжительность: ~ 00:43:00 серия
Субтитры: отсутствуют

Режиссер: Сергей Басин

В ролях: Иван Стебунов, Ярослав Бойко, Валерия Ланская, Эмилия Спивак, Сергей Кошонин, Ирина Ракшина, Руслан Барабанов, Мария Валешная, Виталий Коваленко, Антон Гуляев, Алексей Федькин, Владимир Литвинов, Ирина Конопацкая, Полина Воробьева, Павел Гончаров, Дмитрий Мурашев, Анна Захарова, Андрей Павловец, Ульяна Марковская, Артем Анчуков, Наталья Шостак, Глеб Темнов, Герман Федулов, Ариана Андреева, Александр Разнатовский, Наталья Вершинина, Игорь Чигирь, Светлана Киреева, Григорий Фёдоров, Андрей Лёвин, Сергей Демидов

Описание: Описание: Молодая и амбициозная журналистка Лика отправляется в отдаленный гарнизон вслед за своим возлюбленным - призывником Денисом. Она решает написать разоблачительный материал о тотальном разложении армии и для этого устраивается в гарнизон продавщицей. Но жизнь в этом, на первый взгляд, тихом месте не обещает быть спокойной. Лике приходится включиться в опасные расследования, которые перевернут всю ее дальнейшую жизнь...

Релиз: http://i2.imageban.ru/out/2012/11/20/e578a357671f0643cf4662832e92df53.png

Все раздачи сериала / Сэмпл



Качество: DVB (Express MD1 at 80.0°E)
Формат: MPEG-PS
Видео кодек: MPEG2
Аудио кодек: MP2
Видео: MPEG 2, 720x576 (4:3), 25.000 fps, 5350 Kbps (0.516 bit/pixel)
Аудио: MP2, 48.0 KHz, 2 ch, 256 Kbps, CBR

MediaInfo


ОбщееПолное имя : L:\Раздачи\Жена офицера\Жена офицера.01.mpgФормат : MPEG-PSРазмер файла : 1,71 ГбайтПродолжительность : 42 м.Режим общего битрейта : ПеременныйОбщий поток : 5721 Кбит/секБиблиотека кодирования : (c) 1998-2012 Womble Multimedia, Inc. / MPEG Video Wizard DVD 5.0.1.100 (03/2011) / Sep 7 2012

ВидеоИдентификатор : 224 (0xE0)Формат : MPEG VideoВерсия формата : Version 2Профиль формата : Main@MainПараметр BVOP формата : ДаПараметр матрицы формата : ВыборочнаяПараметр GOP формата : M=3, N=15Продолжительность : 42 м.Вид битрейта : ПеременныйБитрейт : 5351 Кбит/секМаксимальный битрейт : 15,0 Мбит/секШирина : 720 пикселейВысота : 576 пикселейСоотношение сторон : 4:3Частота кадров : 25,000 кадров/секСтандарт вещания : PALЦветовое пространство : YUVСубдискретизация насыщенности : 4:2:0Битовая глубина : 8 битТип развёртки : ЧересстрочнаяПорядок развёртки : Верхнее поле первоеМетод сжатия : С потерямиБит/(Пиксели*Кадры) : 0.516Размер потока : 1,60 Гбайт (94%)Выравнивание : (c) 1998-2012 Womble Multimedia, Inc. / MPEG Video Wizard DVD 5.0.1.100 (03/2011) / Sep 7 2012Заголовок : (c) 1998-2012 Womble Multimedia, Inc. / MPEG Video Wizard DVD 5.0.1.100 (03/2011) / Sep 7 2012Библиотека кодирования : (c) 1998-2012 Womble Multimedia, Inc. / MPEG Video Wizard DVD 5.0.1.100 (03/2011) / Sep 7 2012

АудиоИдентификатор : 192 (0xC0)Формат : MPEG AudioВерсия формата : Version 1Профиль формата : Layer 2Продолжительность : 42 м.Вид битрейта : ПостоянныйБитрейт : 256 Кбит/секКаналы : 2 каналаЧастота : 48,0 КГцМетод сжатия : С потерямиЗадержка видео : -40 мс.Размер потока : 78,5 Мбайт (4%)

Меню



Скриншоты
http://i1.imageban.ru/out/2013/02/18/f8889b75ab12bfe452f5ab4263bca363.png
http://i5.imageban.ru/out/2013/02/18/301469061cfc19b394862f19cabf5c78.png
http://i1.imageban.ru/out/2013/02/18/15ba406082bf817ac2215f9e40c1cca9.png
http://i2.imageban.ru/out/2013/02/18/84146142e1b40c08b40e23be22f53eb3.png


http://i2.imageban.ru/out/2013/02/18/aa4565c92d38a9752671e7348e53f599.png
http://i2.imageban.ru/out/2013/02/18/bf710772f14c74041b4b79638359feab.png
http://i2.imageban.ru/out/2013/02/18/445dd01e1f8a87feb571565e3caeebe5.png
http://i5.imageban.ru/out/2013/02/18/65006ac5c0930b6b2f7519abd4609bd7.png



Раздача ведётся путём добавления новых серий
Раздача ведётся путём добавления новых серий; при каждом добавлении создаётся новый торрент. Чтобы начать докачку новой серии, пользователям необходимо сделать следующее:
(1) остановить скачивание,
(2) удалить старый торрент у себя из клиента (старые серии удалять не надо),
(3) скачать новый торрент и запустить его у себя в клиенте вместо старого, при этом указать клиенту путь в старую папку куда и должно происходить скачивание новых серий.
Ваш клиент при этом должен произвести хеширование (проверку) старой папки (если не производит сам - помогите ему сделать это), и будет докачивать только те серии которых у вас ещё нет. Старые серии при этом не удаляются, а продолжают раздаваться!
Eсли вы уже удалили старые серии, то предотвратить повторную закачку старых серий можно, отжав галочку в соответствующих местах при запуске нового торрента. По возможности, желательно не удалять старые серии как можно дольше чтобы релизёр не столько продолжал раздавать старые серии, а смог сконцентрироваться на новых.
Скриншоты
Похожие файлы
Загрузка / Обновление
КатегорияСериалы RSS лента
Просмотров121 раз (a)
Взят0 раз (a)
Файлы8
Размер13.94 GB (14,969,516,032 байт)
Добавлен
РаздалViKa  (Искать торренты)
Участники
Участники - Загрузка / Обновление
Просматривают Просматривают Загрузка...

-†- ¿? -†-
« Предыдущая - † Страница † - Следующая »

:: Список Комментариев
Нет комментариев.

 Нет комментариев
Вам запрещенно редактировать, создать или удалять комментарии.
shpv© 2007-2014
Страничка сформирована за 0.480 секунд.
Яндекс.Метрика Rambler's Top100