скачать торрент трекер Friends
 
 Главная  •  Торренты  •  Новые релизы  •  Форум  •   •  Персоны кино  •  Правила  •  ЧаВо

Язык интерфейса
Язык интерфейса:


Привет, Гость
[15] из [15]
Введите Логин:
Введите Пароль:
Регистрация
Восстановить Пароль

Линки
АнекдотыБанкоматВсе теги / меткиДополнительные услугиТехподдержка

Главное Меню
 Главная Торренты Релизы за сегодня Персоны кино Запросы / Предложения (3) Правила ЧаВо Проверка BB кодов Топ 10 Архив новостей Прошлые опросы Форматы файлов Группы Последние комментарии Техподдержка

:: Детали раздачи
Торрент раздача является мультитрекерной — учтите, количество раздающих не будет совпадать с количеством участников на сайте (скачивание на клиентской стороне зависит от настроек uTorrent клиент программы, настройки -> Включить DHT, Обмен пирами и Поиск лок-х пиров).
Если висит надпись, пиры по нулям - не бойтесь, возможность скачать повторно торрент раздачу - есть. Попробуйте, в случае отказа - прокоментируйте или нажмите на "Позвать скачавших".

КВН - 64.Весенняя сессия

Скачать
Магнет
ПомощьКак скачать раздачу
Поделиться
Теги / Меткитв-шоу, юмор
Описаниеhttp://i20.fastpic.ru/big/2011/0425/ae/51846ef36272a3d2263292ca5434b5ae.pngГод выпуска: 1964
Страна: Россия
Жанр: ТВ-шоу,Юмор
Продолжительность: 01:28:40

Играют команды:
Московский автомобильный институт
Московский автодорожный институт


Мы с вами станем свидетелями "Экзамена по музыке". И хоть на первый взгляд может показаться, что ничего смешного и быть не могло в далеком несмешном 1964 году - это глубокое заблуждение! "Такой тупняк кругом" - обхохочешься!
Далее в программе: МАИ исполняет студенческую колыбельную песню. Душевно поют.
Студенческая самодеятельность про художников-передвижников, или о том, как у нас умеют рисовать. Стихотворение на двоих.
Отзыв о работе своих соперников. Коротенько так.
Домашнее задание. МАИ представляет "смех с научной точки зрения" - лекция о смехе. Умеренно смешно. МАДИ создает атмосферу чужих людей, хорошего настроения в кафе. "Как развлекается молодежь в молодежном кафе".
А потом они все вместе спускали какой-то флаг... совершенно непонятная процедура, но так, наверное, надо было. А еще... совершенно дурацкий "традиционный круг почета" в конце.

Релиз http://i2.fastpic.ru/big/2010/0213/e8/2b174749f23d6e532f2854ecb44e95e8.gif

Качество: DVB
Формат: MPEG
Видео кодек: MPEG2
Аудио кодек: MPEG1 Layer 2
Видео: MPEG2 Video 704x576 (4:3) 25.00fps 2 778 Kbps
Аудио: MPEG Audio 48000Hz stereo 192 Кбит/сек

MediaInfo
Complete name : F:\TORENTRAZDACHI\КВН-64_DVB_ by_ CLIPMAN.mpg
Format : MPEG-PS
File size : 1.88 GiB
Duration : 1h 28mn
Overall bit rate : 3 031 Kbps

Video
ID : 224 (0xE0)
Format : MPEG Video
Format version : Version 2
Format profile : Main@Main
Format settings, BVOP : Yes
Format settings, Matrix : Default
Format settings, GOP : M=3, N=24
Duration : 1h 28mn
Bit rate mode : Variable
Bit rate : 2 778 Kbps
Nominal bit rate : 15.0 Mbps
Width : 704 pixels
Height : 576 pixels
Display aspect ratio : 4:3
Frame rate : 25.000 fps
Standard : PAL
Color space : YUV
Chroma subsampling : 4:2:0
Bit depth : 8 bits
Scan type : Progressive
Scan order : Top Field First
Bits/(Pixel*Frame) : 0.274
Stream size : 1.72 GiB (92%)

Audio
ID : 192 (0xC0)
Format : MPEG Audio
Format version : Version 1
Format profile : Layer 2
Duration : 1h 28mn
Bit rate mode : Constant
Bit rate : 192 Kbps
Channel(s) : 2 channels
Sampling rate : 48.0 KHz
Stream size : 122 MiB (6%)


Скринлист
http://i20.fastpic.ru/thumb/2011/0425/4b/45c66441921890f99ff7db8c62128e4b.jpeg


Скриншоты
http://i20.fastpic.ru/thumb/2011/0425/5d/31096ad7a1dddf5e699bdc81e88ae65d.jpeg http://i20.fastpic.ru/thumb/2011/0425/a7/f2c4b40f8c904b6237f3f4765c52b9a7.jpeg http://i20.fastpic.ru/thumb/2011/0425/62/8dd554060ef4596b58f2bb2ddc13b362.jpeg http://i20.fastpic.ru/thumb/2011/0425/a0/b98c3abf68c0af392fd6d6cb48f1b1a0.jpeg http://i20.fastpic.ru/thumb/2011/0425/30/e723bc8adaa2b2b6b8de08a8f372c830.jpeg http://i20.fastpic.ru/thumb/2011/0425/b8/c18382e1cdb98211cddb3599be68e8b8.jpeg
Похожие файлы
Загрузка / Обновление
КатегорияTV / Документалки RSS лента
Просмотров62 раз (a)
Взят0 раз (a)
Файлы1
Размер1.88 GB (2,015,588,352 байт)
Добавлен
РаздалViKa  (Искать торренты)
Участники
Участники - Загрузка / Обновление
Просматривают Просматривают Загрузка...

-†- ¿? -†-
« Предыдущая - † Страница † - Следующая »

:: Список Комментариев
Нет комментариев.

 Нет комментариев
Вам запрещенно редактировать, создать или удалять комментарии.
shpv© 2007-2014
Страничка сформирована за 0.289 секунд.
Яндекс.Метрика Rambler's Top100