скачать торрент трекер Friends
 
 Главная  •  Торренты  •  Новые релизы  •  Форум  •   •  Персоны кино  •  Правила  •  ЧаВо

Язык интерфейса
Язык интерфейса:


Привет, Гость
[15] из [15]
Введите Логин:
Введите Пароль:
Регистрация
Восстановить Пароль

Линки
АнекдотыБанкоматВсе теги / меткиДополнительные услугиТехподдержка

Главное Меню
 Главная Торренты Релизы за сегодня Персоны кино Запросы / Предложения (3) Правила ЧаВо Проверка BB кодов Топ 10 Архив новостей Прошлые опросы Форматы файлов Группы Последние комментарии Техподдержка

:: Детали раздачи
Торрент раздача является мультитрекерной — учтите, количество раздающих не будет совпадать с количеством участников на сайте (скачивание на клиентской стороне зависит от настроек uTorrent клиент программы, настройки -> Включить DHT, Обмен пирами и Поиск лок-х пиров).
Если висит надпись, пиры по нулям - не бойтесь, возможность скачать повторно торрент раздачу - есть. Попробуйте, в случае отказа - прокоментируйте или нажмите на "Позвать скачавших".

КВН 2011. Фестиваль «Голосящий КиВиН» в Юрмале

Скачать
Магнет
ПомощьКак скачать раздачу
Поделиться
Теги / Меткиюмор
Описаниеhttp://twinpix.nu/uploads/full/130454.jpgГод выпуска: 2011
Страна: Россия
Жанр: Юмор
Продолжительность: 02:29:36
Эфир: 18 сентября 2011 (запись с эфира на Москву)

Описание: В юбилейный сезон, когда популярной игре и популярному клубу - «КВН» исполняется 50 лет, в курортном городке Латвии Юрмала состоялся XVII международный фестиваль команд КВН «Голосящий КиВиН - 2011», на который были приглашены только те команды, которые завоевали призы фестиваля в прошлые сезоны. В состав жюри вошли Лайма Вайкуле, Лариса Долина, Нил Ушаков (мэр города Рига), Валерий Сюткин, Леонид Ярмольник, Игорь Верник, Юлий Гусман.
Участники:
"Улётчики ТСИ", Рига, Латвия
"Девчонки из Житомира", Житомир, Украина
"Кефир", Нягань, Ханты-Мансийский автономный округ, Россия
Сборная Казахстана
"МСЭБ. Станция Спортивная", Москва
"Ботанический сад", Хабаровск, Россия
"Четыре татарина", Казань, Татарстан
"Уездный город", сборная Челябинска и Магнитогорска, Россия
Сборная Краснодарского края "БАК-Соучастники", Россия
"Пирамида", Владикавказ, Северная Осетия-Алания
"Прима", Курск и "СОК", Самара, Россия
Сборная РУДН, Москва
"Махачкалинские бродяги", Махачкала, Дагестан

Релиз от: http://twinpix.nu/uploads/full/38530.gif

Сэмпл

Качество: SATRip
Формат: AVI
Видео кодек: XviD
Аудио кодек: MP3
Видео: 704x400 (1.76:1), 25 fps, XviD build 50 ~1410 kbps avg, 0.20 bit/pixel
Аудио: 48 kHz, MPEG Layer 3, 2 ch, ~128.00 kbps avg

MediaInfo
Общее
Полное имя : E:\uTorrent\KVN.2011.(08).Yurmala.XviD.SATRip.nikolodo.avi
Формат : AVI
Формат/Информация : Audio Video Interleave
Размер файла : 1,62 Гбайт
Продолжительность : 2 ч. 29 м.
Общий поток : 1548 Кбит/сек
Программа кодирования : VirtualDubMod 1.5.10.3 | www.virtualdub-fr.org || (build 2550/release)
Библиотека кодирования : VirtualDubMod build 2550/release

Видео
Идентификатор : 0
Формат : MPEG-4 Visual
Профиль формата : Advanced Simple@L5
Параметр BVOP формата : 1
Параметр QPel формата : Нет
Параметр GMC формата : Без точки перехода
Параметр матрицы формата : Default (MPEG)
Идентификатор кодека : XVID
Идентификатор кодека/Подсказка : XviD
Продолжительность : 2 ч. 29 м.
Битрейт : 1410 Кбит/сек
Ширина : 704 пикс.
Высота : 400 пикс.
Соотношение сторон : 16:9
Частота кадров : 25,000 кадр/сек
Цветовое пространство : YUV
Подвыборка цветности : 4:2:0
Битовая глубина : 8 бит
Тип развёртки : Прогрессивная
Метод сжатия : С потерями
Бит/(Пиксели*Кадры) : 0.200
Размер потока : 1,47 Гбайт (91%)
Библиотека кодирования : XviD 1.2.1 (UTC 2008-12-04)

Аудио
Идентификатор : 1
Формат : MPEG Audio
Версия формата : Version 1
Профиль формата : Layer 3
Идентификатор кодека : 55
Идентификатор кодека/Подсказка : MP3
Продолжительность : 2 ч. 29 м.
Вид битрейта : Постоянный
Битрейт : 128 Кбит/сек
Каналы : 2 канала
Частота : 48,0 КГц
Метод сжатия : С потерями
Размер потока : 137 Мбайт (8%)
Выравнивание : Соединение по промежуткам
Продолжительность промежутка : 40 мс. (1,00 видеокадр)
Время предзагрузки промежутка : 504 ms
Библиотека кодирования : LAME3.98r
Настройки программы : -m s -V 4 -q 0 -lowpass 17 -b 128


Отличие
Отличие от http://rutracker.org/forum/viewtopic.php?t=3725469
Танец "президента" ("Прима", Курск) и песня "Как казаки Юрмалу спасли" ("БАК-Соучастники") полностью.


Скриншоты
[img]http://i32.fastpic.ru/thumb/2011/0920/a6/d445bf5230ce3b7f84737062c907b4a6.jpeg[/img][img]http://i28.fastpic.ru/thumb/2011/0920/56/eaf0f7fe791f0db245839df6d5cc6f56.jpeg" alt="http://i28.fastpic.ru/thumb/2011/0920/d8/b81ac8f9ecd103ee58069b32b83060d8.jpeg[/img][img]http://i32.fastpic.ru/thumb/2011/0920/a6/d445bf5230ce3b7f84737062c907b4a6.jpeg[/img][img]http://i28.fastpic.ru/thumb/2011/0920/56/eaf0f7fe791f0db245839df6d5cc6f56.jpeg" />
Похожие файлы
Загрузка / Обновление
КатегорияTV / Документалки RSS лента
Просмотров69 раз (a)
Взят0 раз (a)
Файлы1
Размер1.62 GB (1,736,398,848 байт)
Добавлен
РаздалViKa  (Искать торренты)
Участники
Участники - Загрузка / Обновление
Просматривают Просматривают Загрузка...

-†- ¿? -†-
« Предыдущая - † Страница † - Следующая »

:: Список Комментариев
Нет комментариев.

 Нет комментариев
Вам запрещенно редактировать, создать или удалять комментарии.
shpv© 2007-2014
Страничка сформирована за 0.328 секунд.
Яндекс.Метрика Rambler's Top100