скачать торрент трекер Friends
 
 Главная  •  Торренты  •  Новые релизы  •  Форум  •   •  Персоны кино  •  Правила  •  ЧаВо

Язык интерфейса
Язык интерфейса:


Привет, Гость
[15] из [15]
Введите Логин:
Введите Пароль:
Регистрация
Восстановить Пароль

Линки
АнекдотыБанкоматВсе теги / меткиДополнительные услугиТехподдержка

Главное Меню
 Главная Торренты Релизы за сегодня Персоны кино Запросы / Предложения (3) Правила ЧаВо Проверка BB кодов Топ 10 Архив новостей Прошлые опросы Форматы файлов Группы Последние комментарии Техподдержка

:: Детали раздачи
Торрент раздача является мультитрекерной — учтите, количество раздающих не будет совпадать с количеством участников на сайте (скачивание на клиентской стороне зависит от настроек uTorrent клиент программы, настройки -> Включить DHT, Обмен пирами и Поиск лок-х пиров).
Если висит надпись, пиры по нулям - не бойтесь, возможность скачать повторно торрент раздачу - есть. Попробуйте, в случае отказа - прокоментируйте или нажмите на "Позвать скачавших".

КВН - 2011.Премьер-лига вторая 1/4 финала

Скачать
Магнет
ПомощьКак скачать раздачу
Поделиться
Теги / Меткитв-шоу, юмор
Постер
ОписаниеГод выпуска: 2011
Страна: Россия
Жанр: ТВ-шоу,Юмор
Продолжительность: 01:25:17

Играют команды:
«Ананас», Вязьма
«ЖеСТ», ТГПИ, Таганрог
«Рижские готы TVA», Рига
«Сделано в Хабаровске», Хабаровск
«Сега Мега Драйв 16 бит», НИУ ВШЭ, Москва
«Факультет журналистики», Санкт-Петербург


Релиз http://i070.radikal.ru/0909/2c/3957b5f6ca73.gif

Качество: DVB
Формат: MPEG
Видео кодек: MPEG2
Аудио кодек: MPEG1 Layer 2
Видео: MPEG2 Video 720x576 (16:9) 25.00fps 4 174 Кбит/сек
Аудио: MPEG Audio 48000Hz 2 channels 192 Кбит/сек

MediaInfo
Complete name : F:\TORENTRAZDACHI\КВН - 2011.Премьер-лига вторая 1_4 финала_DVB by CLIPMAN.mpg
Format : MPEG-PS
File size : 2.65 GiB
Duration : 1h 25mn
Overall bit rate : 4 455 Kbps

Video
ID : 224 (0xE0)
Format : MPEG Video
Format version : Version 2
Format profile : Main@Main
Format settings, BVOP : Yes
Format settings, Matrix : Default
Duration : 1h 25mn
Bit rate mode : Variable
Bit rate : 4 175 Kbps
Nominal bit rate : 15.0 Mbps
Width : 720 pixels
Height : 576 pixels
Display aspect ratio : 16:9
Frame rate : 25.000 fps
Standard : PAL
Color space : YUV
Chroma subsampling : 4:2:0
Bit depth : 8 bits
Scan type : Interlaced
Scan order : Top Field First
Bits/(Pixel*Frame) : 0.403
Stream size : 2.49 GiB (94%)

Audio
ID : 192 (0xC0)
Format : MPEG Audio
Format version : Version 1
Format profile : Layer 2
Duration : 1h 25mn
Bit rate mode : Constant
Bit rate : 192 Kbps
Channel(s) : 2 channels
Sampling rate : 48.0 KHz
Video delay : -80ms
Stream size : 117 MiB (4%)


Скринлист
http://i25.fastpic.ru/thumb/2011/0730/7d/87cff0374b99ad145f0b12b06f43927d.jpeg


Скриншоты
http://i26.fastpic.ru/thumb/2011/0730/af/aecfdd45302f19f13e1a07f9fae737af.jpeg http://i26.fastpic.ru/thumb/2011/0730/4c/aa90c22ad88bee0d18986e4b4349d84c.jpeg http://i26.fastpic.ru/thumb/2011/0730/ae/75da5f2810a1f7dad8e33f4c429327ae.jpeg http://i26.fastpic.ru/thumb/2011/0730/41/83b6e0e4a2ef1b8d94253e710700f741.jpeg http://i26.fastpic.ru/thumb/2011/0730/d9/bb2c75310b1b4cf31b371fcfa35b6dd9.jpeg
Похожие файлы
Загрузка / Обновление
КатегорияTV / Документалки RSS лента
Просмотров88 раз (a)
Взят0 раз (a)
Файлы1
Размер2.65 GB (2,849,912,832 байт)
Добавлен
РаздалViKa  (Искать торренты)
Участники
Участники - Загрузка / Обновление
Просматривают Просматривают Загрузка...

-†- ¿? -†-
« Предыдущая - † Страница † - Следующая »

:: Список Комментариев
Нет комментариев.

 Нет комментариев
Вам запрещенно редактировать, создать или удалять комментарии.
shpv© 2007-2014
Страничка сформирована за 0.746 секунд.
Яндекс.Метрика Rambler's Top100