скачать торрент трекер Friends
 
 Главная  •  Торренты  •  Новые релизы  •  Форум  •   •  Персоны кино  •  Правила  •  ЧаВо

Язык интерфейса
Язык интерфейса:


Привет, Гость
[15] из [15]
Введите Логин:
Введите Пароль:
Регистрация
Восстановить Пароль

Линки
АнекдотыБанкоматВсе теги / меткиДополнительные услугиТехподдержка

Главное Меню
 Главная Торренты Релизы за сегодня Персоны кино Запросы / Предложения (3) Правила ЧаВо Проверка BB кодов Топ 10 Архив новостей Прошлые опросы Форматы файлов Группы Последние комментарии Техподдержка

:: Детали раздачи
Торрент раздача является мультитрекерной — учтите, количество раздающих не будет совпадать с количеством участников на сайте (скачивание на клиентской стороне зависит от настроек uTorrent клиент программы, настройки -> Включить DHT, Обмен пирами и Поиск лок-х пиров).
Если висит надпись, пиры по нулям - не бойтесь, возможность скачать повторно торрент раздачу - есть. Попробуйте, в случае отказа - прокоментируйте или нажмите на "Позвать скачавших".

КВН 2013. Высшая лига. Второй полуфинал (Вторая 1/2 финала)

Скачать
Магнет
ПомощьКак скачать раздачу
Поделиться
Теги / Меткиюмор, тв-шоу
Постер
ОписаниеГод выпуска: 2013
Страна: Россия
Жанр: Юмор, Тв-шоу
Продолжительность: 01:50:58
Перевод: Не требуется
Русские субтитры: нет

Описание: Программа "КВН" является самой долгоживущей передачей отечественного телеэкрана. Впервые выйдя в эфир 8 ноября 1961 года, она стала легендой еще черно-белого телевидения. В 1986 году "КВН" вновь появился на экране после 14-летнего перерыва и практически сразу вернул себе былую популярность. Сегодня телевизионная программа "КВН" - это вершина огромного айсберга, который представляет из себя Международный Союз КВН, включающий в себя более двух десятков официальных подготовительных Лиг и сотни региональных чемпионатов. Именно в этой передаче участвуют лучшие команды Клуба Веселых и Находчивых. Более 40 лет ведет программу Александр Васильевич Масляков - Президент международного союза КВН, человек, мнением которого дорожит каждый КВНщик. По итогам 2010 года Александр Масляков вошел в top15 популярных телеведущих России по версии TNS Россия.

Ведущий:
Александр Масляков

Играют:
"Факультет журналистики" Санкт-Петербург
"ГородЪ ПятигорскЪ" сборная Пятигорска
"Раисы" Иркутск
"Днепр" сборная Днепропетровской области
Сборная Физтеха Долгопрудный

Жюри:
Константин Эрнст, Валдис Пельш, Михаил Ефремов, Дмитрий Нагиев, Юлий Гусман

[b]Ведущий:[/b]
Александр Масляков

Источник: собственный рип

Доп. информация: Релиз - http://s49.radikal.ru/i126/1005/66/41ae5e297779.jpg

http://i43.fastpic.ru/big/2012/0921/e9/90d4ee0bff997b63269d9d4b002997e9.jpg
Рип чистый. Без посторонних надписей. Выкладывается как есть.

Качество: SATRip
Формат: AVI
Видео кодек: XVID
Аудио кодек: MP3
Видео: 720x400 (16:9) 25.000 fps 1 850 Kbps, 0.250 bit/pixel
Аудио: MPEG Audio, 48000Hz, 2 channels, 192 Кбит/сек

Скриншоты
http://i58.fastpic.ru/thumb/2013/1027/1e/8ba865173ca87d7a95f2b812537f771e.jpeg http://i58.fastpic.ru/thumb/2013/1027/81/389011da93e624841a860d70fff56581.jpeg http://i58.fastpic.ru/thumb/2013/1027/c6/20302e9836703062b770d181fa11b4c6.jpeg http://i58.fastpic.ru/thumb/2013/1027/b8/e87601a1eee01c30d66051c44caa90b8.jpeg
http://i58.fastpic.ru/thumb/2013/1027/3a/59a8d2cff5c4e9fec329826245c8133a.jpeg http://i58.fastpic.ru/thumb/2013/1027/a5/4c7ad5cc0df64a0455d0547f18b734a5.jpeg http://i58.fastpic.ru/thumb/2013/1027/41/a766fc8dd3f0ef2b82de6d7c3b919641.jpeg http://i58.fastpic.ru/thumb/2013/1027/da/2804270fc74cb9ca344fe5268a9325da.jpeg


Скринлист
http://i57.fastpic.ru/thumb/2013/1027/69/19d35a8579a889f5847bcd50f5901869.jpeg


MI


GeneralComplete name : D:\Выкладка\КВН 2013. Высшая лига. Второй полуфинал (2013, Юмор, SATRip) (MYDIMKA).aviFormat : AVIFormat/Info : Audio Video InterleaveFile size : 1.57 GiBDuration : 1h 50mnOverall bit rate : 2 021 KbpsWriting application : VirtualDubMod 1.5.10.3 | www.virtualdub-fr.org || (build 2550/release)Writing library : VirtualDubMod build 2550/release

VideoID : 0Format : MPEG-4 VisualFormat profile : Advanced Simple@L5Format settings, BVOP : 2Format settings, QPel : NoFormat settings, GMC : No warppointsFormat settings, Matrix : Default (H.263)Codec ID : XVIDCodec ID/Hint : XviDDuration : 1h 50mnBit rate : 1 819 KbpsWidth : 720 pixelsHeight : 400 pixelsDisplay aspect ratio : 16:9Frame rate : 25.000 fpsColor space : YUVChroma subsampling : 4:2:0Bit depth : 8 bitsScan type : ProgressiveCompression mode : LossyBits/(Pixel*Frame) : 0.253Stream size : 1.41 GiB (90%)Writing library : XviD 1.2.1 (UTC 2008-12-04)

AudioID : 1Format : MPEG AudioFormat version : Version 1Format profile : Layer 3Codec ID : 55Codec ID/Hint : MP3Duration : 1h 50mnBit rate mode : ConstantBit rate : 192 KbpsChannel count : 2 channelsSampling rate : 48.0 KHzCompression mode : LossyStream size : 152 MiB (10%)Alignment : Aligned on interleavesInterleave, duration : 40 ms (1.00 video frame)Interleave, preload duration : 504 msWriting library : LAME3.99rEncoding settings : -m s -V 4 -q 2 -lowpass 18.6 -b 192
Похожие файлы
Загрузка / Обновление
КатегорияTV / Документалки RSS лента
Просмотров85 раз (a)
Взят0 раз (a)
Файлы1
Размер1.57 GB (1,681,868,800 байт)
Добавлен
РаздалViKa  (Искать торренты)
Участники
Участники - Загрузка / Обновление
Просматривают Просматривают Загрузка...

-†- ¿? -†-
« Предыдущая - † Страница † - Следующая »

:: Список Комментариев
Нет комментариев.

 Нет комментариев
Вам запрещенно редактировать, создать или удалять комментарии.
shpv© 2007-2014
Страничка сформирована за 1.290 секунд.
Яндекс.Метрика Rambler's Top100