скачать торрент трекер Friends
 
 Главная  •  Торренты  •  Новые релизы  •  Форум  •   •  Персоны кино  •  Правила  •  ЧаВо

Язык интерфейса
Язык интерфейса:


Привет, Гость
[15] из [15]
Введите Логин:
Введите Пароль:
Регистрация
Восстановить Пароль

Линки
АнекдотыБанкоматВсе теги / меткиДополнительные услугиТехподдержка

Главное Меню
 Главная Торренты Релизы за сегодня Персоны кино Запросы / Предложения (3) Правила ЧаВо Проверка BB кодов Топ 10 Архив новостей Прошлые опросы Форматы файлов Группы Последние комментарии Техподдержка

:: Детали раздачи
Торрент раздача является мультитрекерной — учтите, количество раздающих не будет совпадать с количеством участников на сайте (скачивание на клиентской стороне зависит от настроек uTorrent клиент программы, настройки -> Включить DHT, Обмен пирами и Поиск лок-х пиров).
Если висит надпись, пиры по нулям - не бойтесь, возможность скачать повторно торрент раздачу - есть. Попробуйте, в случае отказа - прокоментируйте или нажмите на "Позвать скачавших".

КВН-2014 (01). Высшая лига. Первая 1/8 финала

Скачать
Магнет
ПомощьКак скачать раздачу
Поделиться
Теги / Меткитв-шоу, юмор
Постер
ОписаниеГод выпуска: 2014
Страна: Россия
Жанр: Тв-шоу, юмор
Продолжительность:01:53:20
Перевод: Не требуется
Русские субтитры: нет

Дата игры: 08.02.2014
Дата эфира: 02.03.2014

Команды: С.У.Р.А. (Пенза), Сборная Мурманска, Шизгара (Воскресенское), Союз (Тюменская область), Одесские мансы (Одесса)
И вот снова мы начинаем новый сезон. Что же мы увидим в этом году? По всей видимости, будут значительные перемены, ведь недаром тема нового сезона - "Перезагрузка". И первую перезагрузку уже провели - обратите внимание на обновлённую заставку. В финале прошлого года все финалисты попрощались с КВНом, так что, если раньше многие болели за финалистов прошлых дет, то теперь придётся вновь искать команду по душе.

Тема сезона: Перезагрузка
Тема игры: Зима

Жюри: Алексей Чумаков, Валдис Пельш, Леонид Якубович, Михаил Галустян, Юлий Гусман
Приветствие Однажды в студёную зимнюю пору
Союз
- песня про новый сезон
- буфет
- песня про шотландского дипломата
- зимняя песня
- песня про кузнеца
Шизгара
- деревенские дурочки
- Митрич заманивает обратно в Воскресенское
- песня о Деревне
С.У.Р.А.
- в любом российском дворе
- поиск собутыльника в Русском олимпийском доме
- парень устраивается на рыбзавод
- минуту назад на радио слушатель задал очень эмоциональный вопрос
- работника минуту назад понизили в должности
- пензенский вице-губернатор дал ответ слушателю
- подготовка аэропорта к проверке
Сборная Мурманска
- самомнение команды
- случай на свидании
- подготовка стула
- криминальный авторитет дома
-
- что миру дал Мурманск
Одесские мансы
- знания о зиме
- продажа самолётов на авиасалоне МАКС
- презентация зимней коллекции от одесского кутюрье

Биатлон Зимние забавы
навылет за целый балл. Но нервов и бессонных ночей на этот конкурс у команд уходит больше, чем на балл.

СТЭМ У леса на опушке
Союз
- "Война и мир": 4 тома за 4 минуты
С.У.Р.А.
- на военной базе стратегического назначения
Сборная Мурманска
- Зима сдаёт свою избушку
Шизгара
- участника американской программы защиты свидетелей скрывают в Воскресенском
Одесские мансы
- рабочий день главы леса

Музыкальный номер Зимняя песня
Одесские мансы
- песня о проблемах (Вера Брежнева - "Хороший день")
С.У.Р.А.
- показ Пушкину современного творчества
Шизгара
- лекция о Москве (Smokie - "Living door to Alice")
Сборная Мурманска
- уход из КВН
Союз
- история в баре у Семёна (Freddie Mercury & Montserrat Caballe - "Barcelona")

Доп. информация: основано на релизе zhenya_hacker

качество: HDTVRip-AVC
формат: MKV
видеокодек: H.264
аудиокодек: mp2
Видео: h264 720x408 25 fps 1465 kpps
Аудио: Russian (mp2, 48.0 KHz, 2 ch 192 kbps)

MediaInfo
General
Unique ID : 206583425009747091575273262965498921301 (0x9B6A853A82710E6E9049BE2674514155)
Complete name : H:\трекер\KVN.2014.(01).1.1-8.HDTVRip-AVC.mkv
Format : Matroska
Format version : Version 4 / Version 2
File size : 1.31 GiB
Duration : 1h 53mn
Overall bit rate : 1 659 Kbps
Encoded date : UTC 2014-03-03 21:42:42
Writing application : mkvmerge v6.6.0 ('The Edge Of The In Between') built on Dec 1 2013 17:55:00
Writing library : libebml v1.3.0 + libmatroska v1.4.1
Attachment : Yes

Video
ID : 1
Format : AVC
Format/Info : Advanced Video Codec
Format profile : High@L3.1
Format settings, CABAC : Yes
Format settings, ReFrames : 8 frames
Codec ID : V_MPEG4/ISO/AVC
Duration : 1h 53mn
Bit rate : 1 465 Kbps
Width : 720 pixels
Height : 408 pixels
Display aspect ratio : 16:9
Original display aspect ratio : 16:9
Frame rate mode : Constant
Frame rate : 25.000 fps
Color space : YUV
Chroma subsampling : 4:2:0
Bit depth : 8 bits
Scan type : Progressive
Bits/(Pixel*Frame) : 0.199
Stream size : 1.14 GiB (86%)
Writing library : x264 core 128 r2216M 198a7ea
Encoding settings : cabac=1 / ref=9 / deblock=1:0:0 / analyse=0x3:0x133 / me=umh / subme=11 / psy=1 / psy_rd=1.00:0.20 / mixed_ref=1 / me_range=32 / chroma_me=1 / trellis=2 / 8x8dct=1 / cqm=0 / deadzone=21,11 / fast_pskip=0 / chroma_qp_offset=-3 / threads=6 / lookahead_threads=1 / sliced_threads=0 / nr=0 / decimate=1 / interlaced=0 / bluray_compat=0 / constrained_intra=0 / bframes=9 / b_pyramid=1 / b_adapt=2 / b_bias=0 / direct=3 / weightb=1 / open_gop=0 / weightp=2 / keyint=250 / keyint_min=25 / scenecut=40 / intra_refresh=0 / rc_lookahead=40 / rc=2pass / mbtree=1 / bitrate=1465 / ratetol=1.0 / qcomp=0.60 / qpmin=10 / qpmax=51 / qpstep=4 / cplxblur=20.0 / qblur=0.5 / ip_ratio=1.40 / aq=1:1.00
Language : Russian
Default : Yes
Forced : No

Audio
ID : 2
Format : MPEG Audio
Format version : Version 1
Format profile : Layer 2
Codec ID : A_MPEG/L2
Codec ID/Hint : MP2
Duration : 1h 53mn
Bit rate mode : Constant
Bit rate : 192 Kbps
Channel(s) : 2 channels
Sampling rate : 48.0 KHz
Compression mode : Lossy
Stream size : 156 MiB (12%)
Language : Russian
Default : Yes
Forced : No


Скриншоты
http://i57.fastpic.ru/thumb/2014/0304/18/0eff2f38e78a3de34cd59f0607a99318.jpeg http://i60.fastpic.ru/thumb/2014/0304/a7/5a2044b8ed15df1e826e1d9d4a5941a7.jpeg http://i33.fastpic.ru/thumb/2014/0304/f9/6c47c795861688ce8c07a271a4f0eaf9.jpeg http://i33.fastpic.ru/thumb/2014/0304/9e/3ebd18e0848579faefe960ab5877bd9e.jpeg http://i58.fastpic.ru/thumb/2014/0304/bb/2fd18464841b2dd76b5b3e106e5153bb.jpeg
Похожие файлы
Загрузка / Обновление
КатегорияTV / Документалки RSS лента
Просмотров85 раз (a)
Взят0 раз (a)
Файлы1
Размер1.31 GB (1,410,256,096 байт)
Добавлен
РаздалViKa  (Искать торренты)
Участники
Участники - Загрузка / Обновление
Просматривают Просматривают Загрузка...

-†- ¿? -†-
« Предыдущая - † Страница † - Следующая »

:: Список Комментариев
Нет комментариев.

 Нет комментариев
Вам запрещенно редактировать, создать или удалять комментарии.
shpv© 2007-2014
Страничка сформирована за 0.126 секунд.
Яндекс.Метрика Rambler's Top100