Friends
 
   •   •   •   •   •   •   • 

:


,
[15] [15]
:
:

/

        / (3)    BB   10          

::
, ( uTorrent , -> DHT, - ).
, - , - . , - " ".

-2014. 1/8


/ -,
: 2014
:
: -,
: 01:50:44
:
:

: 13.04.2014

: "" . 8 1961 , - . 1986 "" 14- . "" - , , . .

: " ",
, -
"",
,
" " "",

: HDTV 1080i
: mkv
: x264
: AC3
: 1920x1080, 25 fps, 4 251 kbps
: AC3, 6 ch, 384 /

MI


General
ID : 1 (0x1)
Complete name : KVN.13.04.2014.HDTVRip.mkv
Format : MPEG-TS
File size : 3.82 GiB
Duration : 1h 52mn
Overall bit rate mode : Variable
Overall bit rate : 4 880 Kbps

Video
ID : 845 (0x34D)
Menu ID : 1 (0x1)
Format : AVC
Format/Info : Advanced Video Codec
Format profile : High@L4.0
Format settings, CABAC : Yes
Format settings, ReFrames : 4 frames
Codec ID : 27
Duration : 1h 52mn
Bit rate : 4 251 Kbps
Width : 1 920 pixels
Height : 1 080 pixels
Display aspect ratio : 16:9
Frame rate : 25.000 fps
Color space : YUV
Chroma subsampling : 4:2:0
Bit depth : 8 bits
Scan type : Interlaced
Scan order : Top Field First
Bits/(Pixel*Frame) : 0.082
Stream size : 3.33 GiB (87%)
Color primaries : BT.709
Transfer characteristics : BT.709
Matrix coefficients : BT.709

Audio
ID : 985 (0x3D9)
Menu ID : 1 (0x1)
Format : AC-3
Format/Info : Audio Coding 3
Mode extension : CM (complete main)
Format settings, Endianness : Big
Codec ID : 6
Duration : 1h 52mn
Bit rate mode : Constant
Bit rate : 384 Kbps
Channel count : 6 channels
Channel positions : Front: L C R, Side: L R, LFE
Sampling rate : 48.0 KHz
Bit depth : 16 bits
Compression mode : Lossy
Stream size : 308 MiB (8%)
Language : English




http://i33.fastpic.ru/thumb/2014/0413/b6/de40d40b69861c0194e9ec1c2533edb6.jpeg http://i33.fastpic.ru/thumb/2014/0413/79/b9400f21d1ee9d7d353c813f812b2179.jpeg http://i33.fastpic.ru/thumb/2014/0413/f6/b2ab3a92399555394326feda1a9ccdf6.jpeg
/
TV / RSS
89 (a)
0 (a)
1
3.82 GB (4,102,764,044 )
ViKa  ( )
- /
...

-- ¿? --
- -

::
.

 
, .
shpv© 2007-2014
0.110 .
. Rambler's Top100