Friends
 
   •   •   •   •   •   •   • 

:


,
[15] [15]
:
:

/

        / (3)    BB   10          

::
, ( uTorrent , -> DHT, - ).
, - , - . , - " ".

-2014. 1/4


/ -,
: 2014
:
: -,
: 01:54:44
:
:

: 20.04.2014

: "" . 8 1961 , - . 1986 "" 14- . "" - , , . .

: " MIX",

"",
"",
"",

: HDTV 1080i
: mkv
: x264
: AC3
: 1920x1080, 25 fps, 4 238 kbps
: AC3, 6 ch, 384 /

MI


General
ID : 1 (0x1)
Complete name : KVN.20.04.2014.HDTVRip.mkv
Format : MPEG-TS
File size : 3.88 GiB
Duration : 1h 54mn
Overall bit rate mode : Variable
Overall bit rate : 4 866 Kbps

Video
ID : 845 (0x34D)
Menu ID : 1 (0x1)
Format : AVC
Format/Info : Advanced Video Codec
Format profile : High@L4.0
Format settings, CABAC : Yes
Format settings, ReFrames : 4 frames
Codec ID : 27
Duration : 1h 54mn
Bit rate : 4 238 Kbps
Width : 1 920 pixels
Height : 1 080 pixels
Display aspect ratio : 16:9
Frame rate : 25.000 fps
Color space : YUV
Chroma subsampling : 4:2:0
Bit depth : 8 bits
Scan type : Interlaced
Scan order : Top Field First
Bits/(Pixel*Frame) : 0.082
Stream size : 3.38 GiB (87%)
Color primaries : BT.709
Transfer characteristics : BT.709
Matrix coefficients : BT.709

Audio
ID : 985 (0x3D9)
Menu ID : 1 (0x1)
Format : AC-3
Format/Info : Audio Coding 3
Mode extension : CM (complete main)
Format settings, Endianness : Big
Codec ID : 6
Duration : 1h 54mn
Bit rate mode : Constant
Bit rate : 384 Kbps
Channel count : 6 channels
Channel positions : Front: L C R, Side: L R, LFE
Sampling rate : 48.0 KHz
Bit depth : 16 bits
Compression mode : Lossy
Stream size : 313 MiB (8%)
Language : English




http://i57.fastpic.ru/thumb/2014/0420/cc/31108170be3628e212d7318cdd6417cc.jpeg http://i58.fastpic.ru/thumb/2014/0420/a2/_095d7ad5e757e595a798a9f7eadb50a2.jpeg http://i59.fastpic.ru/thumb/2014/0420/66/_16b095010604b94db8934e239e855b66.jpeg http://i58.fastpic.ru/thumb/2014/0420/0b/5f2018585f9eaea8144e201f8b03220b.jpeg
/
TV / RSS
73 (a)
0 (a)
1
3.88 GB (4,161,679,296 )
ViKa  ( )
- /
...

-- ¿? --
- -

::
.

 
, .
shpv© 2007-2014
0.795 .
. Rambler's Top100