скачать торрент трекер Friends
 
 Главная  •  Торренты  •  Новые релизы  •  Форум  •   •  Персоны кино  •  Правила  •  ЧаВо

Язык интерфейса
Язык интерфейса:


Привет, Гость
[15] из [15]
Введите Логин:
Введите Пароль:
Регистрация
Восстановить Пароль

Линки
АнекдотыБанкоматВсе теги / меткиДополнительные услугиТехподдержка

Главное Меню
 Главная Торренты Релизы за сегодня Персоны кино Запросы / Предложения (3) Правила ЧаВо Проверка BB кодов Топ 10 Архив новостей Прошлые опросы Форматы файлов Группы Последние комментарии Техподдержка

:: Детали раздачи
Торрент раздача является мультитрекерной — учтите, количество раздающих не будет совпадать с количеством участников на сайте (скачивание на клиентской стороне зависит от настроек uTorrent клиент программы, настройки -> Включить DHT, Обмен пирами и Поиск лок-х пиров).
Если висит надпись, пиры по нулям - не бойтесь, возможность скачать повторно торрент раздачу - есть. Попробуйте, в случае отказа - прокоментируйте или нажмите на "Позвать скачавших".

КВН-2014 (04). Высшая лига. Четвертая 1/8 финала

Скачать
Магнет
ПомощьКак скачать раздачу
Поделиться
Теги / Меткитв-шоу, юмор
Постер
ОписаниеГод выпуска: 2014
Страна: Россия
Жанр: Тв-шоу, юмор
Продолжительность:01:50:27
Перевод: Не требуется
Русские субтитры: нет

Дата игры: 10.03.2014
Дата эфира: 13.04.2014

Тема сезона: Перезагрузка
Тема игры: Осень
Жюри: Леонид Якубович, Валдис Пельш, Дмитрий Нагиев, Юлий Гусман, Николай Фоменко, Михаил Ефремов, Михаил Галустян

Приветствие Осенний марафон

Сборная РУДН
- случай в команде РУДН
- кавказец, который избегает драк
- тёмной ночью на городск4ой улице
- инженер "Тойоты" на экскурсии на "Автовазе"
- программа "Жить здорово!" с Еленой Малишамбой
- Анита знакомит парня со своей семьёй

Спарта
- во дворе
- представитель Каахстана у разработчиков компьютерных игр
- танцевальный коллектив на своём последнем прощальном концерте
- разговоры маленьких детей
- выступление казахского национального академического хора

Сборная МФЮА
- на одной из игр Игнашевичу не достался ребёнок
- Дмитрий Нагиев в парикмахерской
- корпоратив работников передачи "Поле чудес"
- ребёнок уходит из дома
- уроки самообороны на телевидении
- российская сборная в раздевалке сразу после матча с финнами

Детективное агентство "Лунный свет"
- в пункте приёма крови
- таксист без фантазии
- на программе "Поле чудес" украли барабан
- реалистичный следственный эксперимент

Плохая компания
- предъявы от полиции
- отца везут кодироваться
- в раздевалке ФК "Железногорский атом"
- на чартерном рейсе Москва-Анталия
- депутат у гадалки

Биатлон Листопад
Игра на вылет за целый балл. Но нервов и бессонных ночей на этот конкурс у команд уходит больше, чем на балл.

СТЭМ Сезон охоты

Спарта
- сотрудник милиции приехал из Астаны в Москву по обмену опытом

Детективное агентство "Лунный свет"
- охотник поневоле на загородной трассе

Плохая компания
- в обычной российской деревне за 100 километров от Москвы

Сборная РУДН
- отделение полиции в РУДН

Сборная МФЮА
- девушка нашла себе парня точь-в-точь как свой отец

Музыкальный номер Золотая пора

Плохая компания
- в кабинете директора молодёжного творческого центра

Спарта
- песня про казахов (Валентина Толкунова - "Я не могу иначе")

Детективное агентство "Лунный свет"
- два друга записывают ролик для интернета

Сборная МФЮА
- песня про процесс написания песни для музыкального номера

Сборная РУДН
- как выглядели бы российские песни, если бы у нас жили американцы

Доп. информация: основано на релизе zhenya_hacker

качество: HDTVRip 720p
формат: MKV
видеокодек: H.264
аудиокодек: ac3
Видео: h264 1280x720 25. fps 4600 kpps 0.2 bit/pixe
Аудио: Russian (ac3, 48.0 KHz, 2 ch 384 kbps)

MediaInfo
General
Unique ID : 230200786532599848543335825512222552905 (0xAD2F0F0D8C10B4D68E8ABE0600A5F349)
Complete name : H:\трекер\KVN.2014.(04).4.1-8.HDTVRip.720p.mkv
Format : Matroska
Format version : Version 4 / Version 2
File size : 3.85 GiB
Duration : 1h 50mn
Overall bit rate : 4 986 Kbps
Encoded date : UTC 2014-04-14 18:07:45
Writing application : mkvmerge v6.8.0 ('Theme for Great Cities') 32bit built on Mar 2 2014 21:27:07
Writing library : libebml v1.3.0 + libmatroska v1.4.1
Attachment : Yes

Video
ID : 1
Format : AVC
Format/Info : Advanced Video Codec
Format profile : High@L4.0
Format settings, CABAC : Yes
Format settings, ReFrames : 8 frames
Codec ID : V_MPEG4/ISO/AVC
Duration : 1h 50mn
Bit rate : 4 600 Kbps
Width : 1 280 pixels
Height : 720 pixels
Display aspect ratio : 16:9
Frame rate mode : Constant
Frame rate : 25.000 fps
Color space : YUV
Chroma subsampling : 4:2:0
Bit depth : 8 bits
Scan type : Progressive
Bits/(Pixel*Frame) : 0.200
Stream size : 3.47 GiB (90%)
Writing library : x264 core 128 r2216M 198a7ea
Encoding settings : cabac=1 / ref=9 / deblock=1:0:0 / analyse=0x3:0x133 / me=umh / subme=11 / psy=1 / psy_rd=1.00:0.20 / mixed_ref=1 / me_range=32 / chroma_me=1 / trellis=2 / 8x8dct=1 / cqm=0 / deadzone=21,11 / fast_pskip=0 / chroma_qp_offset=-3 / threads=12 / lookahead_threads=2 / sliced_threads=0 / nr=0 / decimate=1 / interlaced=0 / bluray_compat=0 / constrained_intra=0 / bframes=9 / b_pyramid=1 / b_adapt=2 / b_bias=0 / direct=3 / weightb=1 / open_gop=0 / weightp=2 / keyint=250 / keyint_min=25 / scenecut=40 / intra_refresh=0 / rc_lookahead=40 / rc=2pass / mbtree=1 / bitrate=4600 / ratetol=1.0 / qcomp=0.60 / qpmin=10 / qpmax=51 / qpstep=4 / cplxblur=20.0 / qblur=0.5 / ip_ratio=1.40 / aq=1:1.00
Language : Russian
Default : Yes
Forced : No

Audio
ID : 2
Format : AC-3
Format/Info : Audio Coding 3
Mode extension : CM (complete main)
Format settings, Endianness : Big
Codec ID : A_AC3
Duration : 1h 50mn
Bit rate mode : Constant
Bit rate : 384 Kbps
Channel(s) : 6 channels
Channel positions : Front: L C R, Side: L R, LFE
Sampling rate : 48.0 KHz
Bit depth : 16 bits
Compression mode : Lossy
Stream size : 303 MiB (8%)
Language : Russian
Default : Yes
Forced : No


Скриншоты
[img]http://i080.radikal.ru/1404/e6/31610b65a9edt.jpg[/img][img]http://s004.radikal.ru/i206/1404/9e/4521ccc7988ft.jpg[/img][img]http://i016.radikal.ru/1404/53/5ed7fa067c6dt.jpg[/img][img]http://s018.radikal.ru/i515/1404/cd/f0078e258078t.jpg" alt="http://s017.radikal.ru/i444/1404/8d/8a531905c4ect.jpg[/img][img]http://i080.radikal.ru/1404/e6/31610b65a9edt.jpg[/img][img]http://s004.radikal.ru/i206/1404/9e/4521ccc7988ft.jpg[/img][img]http://i016.radikal.ru/1404/53/5ed7fa067c6dt.jpg[/img][img]http://s018.radikal.ru/i515/1404/cd/f0078e258078t.jpg" />
Похожие файлы
Загрузка / Обновление
КатегорияTV / Документалки RSS лента
Просмотров83 раз (a)
Взят0 раз (a)
Файлы1
Размер3.85 GB (4,130,448,725 байт)
Добавлен
РаздалViKa  (Искать торренты)
Участники
Участники - Загрузка / Обновление
Просматривают Просматривают Загрузка...

-†- ¿? -†-
« Предыдущая - † Страница † - Следующая »

:: Список Комментариев
Нет комментариев.

 Нет комментариев
Вам запрещенно редактировать, создать или удалять комментарии.
shpv© 2007-2014
Страничка сформирована за 0.063 секунд.
Яндекс.Метрика Rambler's Top100