скачать торрент трекер Friends
 
 Главная  •  Торренты  •  Новые релизы  •  Форум  •   •  Персоны кино  •  Правила  •  ЧаВо

Язык интерфейса
Язык интерфейса:


Привет, Гость
[15] из [15]
Введите Логин:
Введите Пароль:
Регистрация
Восстановить Пароль

Линки
АнекдотыБанкоматВсе теги / меткиДополнительные услугиТехподдержка

Главное Меню
 Главная Торренты Релизы за сегодня Персоны кино Запросы / Предложения (3) Правила ЧаВо Проверка BB кодов Топ 10 Архив новостей Прошлые опросы Форматы файлов Группы Последние комментарии Техподдержка

:: Детали раздачи
Торрент раздача является мультитрекерной — учтите, количество раздающих не будет совпадать с количеством участников на сайте (скачивание на клиентской стороне зависит от настроек uTorrent клиент программы, настройки -> Включить DHT, Обмен пирами и Поиск лок-х пиров).
Если висит надпись, пиры по нулям - не бойтесь, возможность скачать повторно торрент раздачу - есть. Попробуйте, в случае отказа - прокоментируйте или нажмите на "Позвать скачавших".

КВН-2014 (05). Высшая лига. Первая 1/4 финала

Скачать
Магнет
ПомощьКак скачать раздачу
Поделиться
Теги / Меткитв-шоу, юмор
Постер
ОписаниеГод выпуска: 2014
Страна: Россия
Жанр: Тв-шоу, юмор
Продолжительность:01:52:14
Перевод: Не требуется
Русские субтитры: нет

Дата игры: 10.04.2014
Дата эфира: 20.04.2014

Команды: Азия MIX (Бишкек), Сборная Мурманска, Саратов (Саратов), Союз (Тюменская область), Молодость (Красноярск)
Начинается второй этап отсева команд на пути к финалу. В этой игре, которая прошла всего 10 дней назад, по-прежнему будет довольно много команд. И, хотя команды неплохо подготовились, жюри столкнётся с нехваткой табличек, чтобы выразить все свои эмоции. Игра получилась сумбурной, но это скорее такое впечатление складывается из-за еженедельных эфиров. Итак, четвертьфиналы.

Тема сезона: Перезагрузка
Тема игры: Путешествие пешком
Жюри: Михаил Галустян, Лариса Гузеева, Константин Эрнст, Николай Фоменко, Михаил Ефремов, Юлий Гусман

Приветствие Дорогу осилит идущий

Молодость
- воспоминания о великих путниках
- семья готовится ко сну после выпуска новостей
- девушка не дождалась из армии спецназовца
- сибирский мужичок задолжал денег серьёзным людям

Саратов
- впечатления мэра Саратова о выступлении в 1/8
- человек без цели в жизни на собеседовании
- как по пьяни красивеет уже самая красивая девушка страны (Виктория Лопырёва)
- аудиокниги жалоб саратовских поликлиник

Сборная Мурманска
- презентация подарка
- человек без цели в жизни на собеседовании
- цель игры в КВН
- приветствие закончилось

Азия MIX
- Пётр I прорубает окно в Азию
- на сеансе иглоукалывания
- восточная семья на приёме у семейного психолога
- экстренный саммит азиатских стран

Союз
- песня про полуостров
- кто как попал в команду
- заседание ООН
- двойка от Фоменко

Биатлон
Игра на вылет за целый балл. Но нервов и бессонных ночей на этот конкурс у команд уходит больше, чем на балл.

Капитанский конкурс Рассказ путника

Саратов
- о холодильнике "Саратов"

Азия MIX
- первый кыргызский смартфон

Союз
- рассказ о поездке в Москву

Сборная Мурманска
- конкурс мурманских Капитанов

Молодость
- воспоминания о родном дворе

Музыкальный сюжет С песней весело шагать

Молодость
- поступление на эстрадно-музыкальный факультет

Сборная Мурманска
- нет времени показать конкурс

Саратов
- музыкальный "Что? Где? Когда?" знатоки против звёзд

Азия MIX
- постановка по мотивам Островского "Беспрописчица"

Союз
- крайне омузыкаленный рассказ из обычной жизни

Доп. информация: основано на релизе zhenya_hacker

качество: HDTVRip 720p
формат: MKV
видеокодек: H.264
аудиокодек: mp2
Видео: h264 1280x720 25. fps 4600 kpps 0.2 bit/pixe
Аудио: Russian (mp2, 48.0 KHz, 2 ch 192 kbps)

MediaInfo
General
Unique ID : 188871629011988427197851065004600942870 (0x8E175A43BA38C7C783E78F7388D56116)
Complete name : H:\трекер\KVN.2014.(05).1.1-4.HDTVRip.720p.mkv
Format : Matroska
Format version : Version 4 / Version 2
File size : 3.76 GiB
Duration : 1h 52mn
Overall bit rate : 4 794 Kbps
Encoded date : UTC 2014-04-21 13:56:55
Writing application : mkvmerge v6.9.1 ('Blue Panther') 64bit built on Apr 18 2014 18:23:38
Writing library : libebml v1.3.0 + libmatroska v1.4.1
Attachment : Yes

Video
ID : 1
Format : AVC
Format/Info : Advanced Video Codec
Format profile : High@L4.0
Format settings, CABAC : Yes
Format settings, ReFrames : 8 frames
Codec ID : V_MPEG4/ISO/AVC
Duration : 1h 52mn
Bit rate : 4 600 Kbps
Width : 1 280 pixels
Height : 720 pixels
Display aspect ratio : 16:9
Frame rate mode : Constant
Frame rate : 25.000 fps
Color space : YUV
Chroma subsampling : 4:2:0
Bit depth : 8 bits
Scan type : Progressive
Bits/(Pixel*Frame) : 0.200
Stream size : 3.53 GiB (94%)
Writing library : x264 core 128 r2216M 198a7ea
Encoding settings : cabac=1 / ref=9 / deblock=1:0:0 / analyse=0x3:0x133 / me=umh / subme=11 / psy=1 / psy_rd=1.00:0.20 / mixed_ref=1 / me_range=32 / chroma_me=1 / trellis=2 / 8x8dct=1 / cqm=0 / deadzone=21,11 / fast_pskip=0 / chroma_qp_offset=-3 / threads=12 / lookahead_threads=2 / sliced_threads=0 / nr=0 / decimate=1 / interlaced=0 / bluray_compat=0 / constrained_intra=0 / bframes=9 / b_pyramid=1 / b_adapt=2 / b_bias=0 / direct=3 / weightb=1 / open_gop=0 / weightp=2 / keyint=250 / keyint_min=25 / scenecut=40 / intra_refresh=0 / rc_lookahead=40 / rc=2pass / mbtree=1 / bitrate=4600 / ratetol=1.0 / qcomp=0.60 / qpmin=10 / qpmax=51 / qpstep=4 / cplxblur=20.0 / qblur=0.5 / ip_ratio=1.40 / aq=1:1.00
Language : Russian
Default : Yes
Forced : No

Audio
ID : 2
Format : MPEG Audio
Format version : Version 1
Format profile : Layer 2
Codec ID : A_MPEG/L2
Codec ID/Hint : MP2
Duration : 1h 52mn
Bit rate mode : Constant
Bit rate : 192 Kbps
Channel(s) : 2 channels
Sampling rate : 48.0 KHz
Compression mode : Lossy
Stream size : 154 MiB (4%)
Language : Russian
Default : Yes
Forced : No


Скриншоты
[img]http://s020.radikal.ru/i718/1404/be/b6bcff29b0b0t.jpg[/img][img]http://s006.radikal.ru/i215/1404/01/838888203333t.jpg[/img][img]http://s019.radikal.ru/i602/1404/49/79e7c55dcc2et.jpg[/img][img]http://s020.radikal.ru/i713/1404/b9/056c191bd397t.jpg" alt="http://s019.radikal.ru/i620/1404/fa/96b7fc26e7dct.jpg[/img][img]http://s020.radikal.ru/i718/1404/be/b6bcff29b0b0t.jpg[/img][img]http://s006.radikal.ru/i215/1404/01/838888203333t.jpg[/img][img]http://s019.radikal.ru/i602/1404/49/79e7c55dcc2et.jpg[/img][img]http://s020.radikal.ru/i713/1404/b9/056c191bd397t.jpg" />
Похожие файлы
Загрузка / Обновление
КатегорияTV / Документалки RSS лента
Просмотров55 раз (a)
Взят0 раз (a)
Файлы1
Размер3.76 GB (4,035,392,323 байт)
Добавлен
РаздалViKa  (Искать торренты)
Участники
Участники - Загрузка / Обновление
Просматривают Просматривают Загрузка...

-†- ¿? -†-
« Предыдущая - † Страница † - Следующая »

:: Список Комментариев
Нет комментариев.

 Нет комментариев
Вам запрещенно редактировать, создать или удалять комментарии.
shpv© 2007-2014
Страничка сформирована за 0.154 секунд.
Яндекс.Метрика Rambler's Top100