скачать торрент трекер Friends
 
 Главная  •  Торренты  •  Новые релизы  •  Форум  •   •  Персоны кино  •  Правила  •  ЧаВо

Язык интерфейса
Язык интерфейса:


Привет, Гость
[15] из [15]
Введите Логин:
Введите Пароль:
Регистрация
Восстановить Пароль

Линки
АнекдотыБанкоматВсе теги / меткиДополнительные услугиТехподдержка

Главное Меню
 Главная Торренты Релизы за сегодня Персоны кино Запросы / Предложения (3) Правила ЧаВо Проверка BB кодов Топ 10 Архив новостей Прошлые опросы Форматы файлов Группы Последние комментарии Техподдержка

:: Детали раздачи
Торрент раздача является мультитрекерной — учтите, количество раздающих не будет совпадать с количеством участников на сайте (скачивание на клиентской стороне зависит от настроек uTorrent клиент программы, настройки -> Включить DHT, Обмен пирами и Поиск лок-х пиров).
Если висит надпись, пиры по нулям - не бойтесь, возможность скачать повторно торрент раздачу - есть. Попробуйте, в случае отказа - прокоментируйте или нажмите на "Позвать скачавших".

Первая украинская лига КВН-2013: Финал

Скачать
Магнет
ПомощьКак скачать раздачу
Поделиться
Теги / Меткиюмор
Постер
ОписаниеГод выпуска: 2013
Страна: Украина
Жанр: юмор
Продолжительность: 01:54:07
Перевод: Не требуется
Русские субтитры: нет

Описание: Запись финала Первой украинской лиги КВН-2013. Игра состоялась 16 ноября 2013 года во Дворце Культуры Студентов Одесского Национального Политехнического университета.

Команды:
• «Замок Любарта» (г. Луцк);
• «Сборная СССР» (г. Одесса);
• «Нон-стоп» (г. Тамбов, Россия);
• «Несборная Израиля» (Израиль);
• «По семейным обстоятельствам» (г. Одесса);
• «Улица Правды» (г. Санкт-Петербург, Россия).

Доп. информация:
• съёмка производилась пятью камерами со штативов + 1 кран;
• звук записан с пульта с наложением звуков зала (в файле две аудиодорожки: первая отличается от второй более жёстким уровнем нормализации звука);
• это смонтированная телеверсия, т.е. некоторые фрагменты вырезаны.

Сэмпл: http://multi-up.com/942430

качество: DVDRip
формат: MKV
Видео: кодек: H.264; размер кадра: 720x536; битрейт: 1800 kbps; кадров в секунду: 25 fps
Аудио 1: кодек: MP3; битрейт: 192 kbps; частота: 48 kHz; количество каналов: 2; язык: русский (звуковая дорожка от телевизионщиков + дополнительная нормализация)
Аудио 2: кодек: MP3; битрейт: 192 kbps; частота: 48 kHz; количество каналов: 2; язык: русский (оригинальная звуковая дорожка от телевизионщиков)

Примечание по поводу языка в раздаче
В комментариях часто спрашивают по поводу языка, на котором выступают команды (русский или украинский). Так вот действие происходит в Одессе, это юг Украины. Здесь местное население в основном русско-говорящее. И в большинстве своём отношение к вопросу языка у людей толерантное. Потому в самой лиге к языковому вопросу отношение аналогичное. Команды сами решают на каком языке они хотят выступать (выбор, естественно, только между русским и украинским). Ведущий и жюри говорят по-русски. Команды в большинстве своём тоже выступают на русском. Есть команды, которые принципиально выступают на украинском, но их мало (обычно не больше одной-двух за игру). Есть команды, у которых язык выступления смешанный (т.е. каждый актёр команды сам выбирает для себя язык, на котором он будет выступать). Доходит до того, что актёры одной и той же миниатюры разговаривают на разных языках. Но опять таки хочу подчеркнуть, что это редкие случаи. На 95% язык всего происходящего - русский.


MediaInfo


Общее
Уникальный идентификатор                 : 253948055644737895477891507948311408357 (0xBF0C9DD0E160A6538BE93BC5853DEEE5)
Полное имя                               : Y:\Video\Юмор\Первая украинская лига КВН-2013. Финал (16.11.2013)\Первая украинская лига КВН-2013. Финал (16.11.2013).mkv
Формат                                   : Matroska
Версия формата                           : Version 4 / Version 2
Размер файла                             : 1,66 Гбайт
Продолжительность                        : 1 ч. 54 м.
Общий поток                              : 2080 Кбит/сек
Название фильма                          : Первая украинская лига КВН-2013: Финал [ТВ-версия] (16.11.2013)
Дата кодирования                         : UTC 2014-01-20 19:09:43
Программа кодирования                    : mkvmerge v6.3.0 ('You can't stop me!') built on Jun 28 2013 20:09:41
Библиотека кодирования                   : libebml v1.3.0 + libmatroska v1.4.0
Attachment                               : Yes

Видео
Идентификатор                            : 1
Формат                                   : AVC
Формат/Информация                        : Advanced Video Codec
Профиль формата                          : High@L4.1
Параметр CABAC формата                   : Да
Параметр ReFrames формата                : 5 кадров
Идентификатор кодека                     : V_MPEG4/ISO/AVC
Продолжительность                        : 1 ч. 54 м.
Битрейт                                  : 1655 Кбит/сек
Номинальный битрейт                      : 1800 Кбит/сек
Ширина                                   : 720 пикселей
Высота                                   : 536 пикселей
Соотношение сторон                       : 4:3
Соотношение сторон в оригинале           : 4:3
Режим частоты кадров                     : Постоянный
Частота кадров                           : 25,000 кадров/сек
Цветовое пространство                    : YUV
Субдискретизация насыщенности            : 4:2:0
Битовая глубина                          : 8 бит
Тип развёртки                            : Прогрессивная
Бит/(Пиксели*Кадры)                      : 0.171
Размер потока                            : 1,32 Гбайт (80%)
Заголовок                                : Первая украинская лига КВН-2013: Финал [ТВ-версия] (16.11.2013)
Библиотека кодирования                   : x264 core 120 r2146M bcd41db
Настройки программы                      : cabac=1 / ref=6 / deblock=1:0:0 / analyse=0x3:0x133 / me=tesa / subme=10 / psy=1 / psy_rd=1.00:0.20 / mixed_ref=1 / me_range=16 / chroma_me=1 / trellis=2 / 8x8dct=1 / cqm=0 / deadzone=21,11 / fast_pskip=1 / chroma_qp_offset=-3 / threads=10 / sliced_threads=0 / nr=0 / decimate=1 / interlaced=0 / bluray_compat=0 / constrained_intra=0 / bframes=6 / b_pyramid=1 / b_adapt=2 / b_bias=0 / direct=3 / weightb=1 / open_gop=0 / weightp=2 / keyint=250 / keyint_min=25 / scenecut=40 / intra_refresh=0 / rc_lookahead=40 / rc=cbr / mbtree=1 / bitrate=1800 / ratetol=1.0 / qcomp=0.60 / qpmin=10 / qpmax=51 / qpstep=4 / vbv_maxrate=1800 / vbv_bufsize=1800 / nal_hrd=none / ip_ratio=1.40 / aq=1:1.00
Язык                                     : Russian
Default                                  : Да
Forced                                   : Нет

Аудио #1
Идентификатор                            : 2
Формат                                   : MPEG Audio
Версия формата                           : Version 1
Профиль формата                          : Layer 3
Режим                                    : Joint stereo
Идентификатор кодека                     : A_MPEG/L3
Идентификатор кодека/Подсказка           : MP3
Продолжительность                        : 1 ч. 54 м.
Вид битрейта                             : Постоянный
Битрейт                                  : 192 Кбит/сек
Каналы                                   : 2 канала
Частота                                  : 48,0 КГц
Метод сжатия                             : С потерями
Размер потока                            : 157 Мбайт (9%)
Заголовок                                : Additional normalized
Язык                                     : Russian
Default                                  : Да
Forced                                   : Нет

Аудио #2
Идентификатор                            : 3
Формат                                   : MPEG Audio
Версия формата                           : Version 1
Профиль формата                          : Layer 3
Режим                                    : Joint stereo
Расширение режима                        : MS Stereo
Идентификатор кодека                     : A_MPEG/L3
Идентификатор кодека/Подсказка           : MP3
Продолжительность                        : 1 ч. 54 м.
Вид битрейта                             : Постоянный
Битрейт                                  : 192 Кбит/сек
Каналы                                   : 2 канала
Частота                                  : 48,0 КГц
Метод сжатия                             : С потерями
Размер потока                            : 157 Мбайт (9%)
Заголовок                                : Original
Библиотека кодирования                   : LAME3.99.3
Язык                                     : Russian
Default                                  : Нет
Forced                                   : Нет



Скриншоты
http://i58.fastpic.ru/thumb/2014/0121/da/75a95c47935b610b7e21d92e9e78e5da.jpeg
http://i33.fastpic.ru/thumb/2014/0121/b2/90434c3364d3f1de84184b14a1f21db2.jpeg http://i59.fastpic.ru/thumb/2014/0121/15/e3f01b25c54d0947619d256a47292615.jpeg http://i59.fastpic.ru/thumb/2014/0121/3d/a7c217f4e36e6f42e92d8876af70c93d.jpeg http://i58.fastpic.ru/thumb/2014/0121/a3/f5653ac489d31aa4c46fb82037efcfa3.jpeg http://i59.fastpic.ru/thumb/2014/0121/bc/4ed15fa2b787097ff5fcf9069ffd45bc.jpeg http://i33.fastpic.ru/thumb/2014/0121/e7/03f96d8ca6f78ce433e549e06caec2e7.jpeg http://i33.fastpic.ru/thumb/2014/0121/8d/fff9c44b130e241738343cbde9689c8d.jpeg http://i57.fastpic.ru/thumb/2014/0121/22/378e26de552d6da8146eba8e1089ee22.jpeg http://i58.fastpic.ru/thumb/2014/0121/8c/529c8fe61e67ce3c0367aea9e2f7a28c.jpeg http://i33.fastpic.ru/thumb/2014/0121/19/87cf8a80582a5c4018bc3d07889b4519.jpeg http://i58.fastpic.ru/thumb/2014/0121/a1/44197a7c981bd3fb7ba55df5906439a1.jpeg http://i33.fastpic.ru/thumb/2014/0121/88/689d293b58f7214f17e4183d71e24988.jpeg
Похожие файлы
Загрузка / Обновление
КатегорияTV / Документалки RSS лента
Просмотров40 раз (a)
Взят0 раз (a)
Файлы1
Размер1.66 GB (1,780,287,841 байт)
Добавлен
РаздалViKa  (Искать торренты)
Участники
Участники - Загрузка / Обновление
Просматривают Просматривают Загрузка...

-†- ¿? -†-
« Предыдущая - † Страница † - Следующая »

:: Список Комментариев
Нет комментариев.

 Нет комментариев
Вам запрещенно редактировать, создать или удалять комментарии.
shpv© 2007-2014
Страничка сформирована за 0.106 секунд.
Яндекс.Метрика Rambler's Top100