Friends
 
   •   •   •   •   •   •   • 

:


,
[15] [15]
:
:

/

        / (3)    BB   10          

::
, ( uTorrent , -> DHT, - ).
, - , - . , - " ".

-2014. 1/4


/ -,
: 2014
:
: -,
: 01:50:44
:
:

: 20.04.2014

: "" . 8 1961 , - . 1986 "" 14- . "" - , , . .

: " MIX",

"",
"",
"",

: HDTVRip
: AVI
: XVID
: AC-3
: MPEG-4 Visual (XviD), 720x400, 25.000 fps, 1700 Kbps
: AC-3 , 48.0 KHz, 384 Kbps

MI


General
Complete name : KVN.2014.5.igra.HDTVRip.avi
Format : AVI
Format/Info : Audio Video Interleave
File size : 1.67 GiB
Duration : 1h 54mn
Overall bit rate : 2 093 Kbps
Writing application : VirtualDubMod 1.5.10.3 | www.virtualdub-fr.org || (build 2550/release)
Writing library : VirtualDubMod build 2550/release

Video
ID : 0
Format : MPEG-4 Visual
Format profile : Advanced Simple@L5
Format settings, BVOP : 1
Format settings, QPel : No
Format settings, GMC : No warppoints
Format settings, Matrix : Default (MPEG)
Muxing mode : Packed bitstream
Codec ID : XVID
Codec ID/Hint : XviD
Duration : 1h 54mn
Bit rate : 1 700 Kbps
Width : 720 pixels
Height : 400 pixels
Display aspect ratio : 16:9
Frame rate : 25.000 fps
Color space : YUV
Chroma subsampling : 4:2:0
Bit depth : 8 bits
Scan type : Progressive
Compression mode : Lossy
Bits/(Pixel*Frame) : 0.236
Stream size : 1.35 GiB (81%)
Writing library : XviD 1.2.1 (UTC 2008-12-04)

Audio
ID : 1
Format : AC-3
Format/Info : Audio Coding 3
Mode extension : CM (complete main)
Format settings, Endianness : Big
Codec ID : 2000
Duration : 1h 54mn
Bit rate mode : Constant
Bit rate : 384 Kbps
Channel count : 6 channels
Channel positions : Front: L C R, Side: L R, LFE
Sampling rate : 48.0 KHz
Bit depth : 16 bits
Compression mode : Lossy
Stream size : 313 MiB (18%)
Alignment : Split accross interleaves
Interleave, duration : 40 ms (1.00 video frame)
Interleave, preload duration : 500 ms




http://i57.fastpic.ru/thumb/2014/0420/88/ac32369c9b04dc34968755f352d5d888.jpeg http://i60.fastpic.ru/thumb/2014/0420/a3/54b5d216cceccf1c21a3ef730caaf7a3.jpeg http://i58.fastpic.ru/thumb/2014/0420/05/7de07dfc660cc208fabaed24de051c05.jpeg
/
TV / RSS
58 (a)
0 (a)
1
1.67 GB (1,790,396,416 )
ViKa  ( )
- /
...

-- ¿? --
- -

::
.

 
, .
shpv© 2007-2014
0.097 .
. Rambler's Top100