скачать торрент трекер Friends
 
 Главная  •  Торренты  •  Новые релизы  •  Форум  •   •  Персоны кино  •  Правила  •  ЧаВо

Язык интерфейса
Язык интерфейса:


Привет, Гость
[15] из [15]
Введите Логин:
Введите Пароль:
Регистрация
Восстановить Пароль

Линки
АнекдотыБанкоматВсе теги / меткиДополнительные услугиТехподдержка

Главное Меню
 Главная Торренты Релизы за сегодня Персоны кино Запросы / Предложения (3) Правила ЧаВо Проверка BB кодов Топ 10 Архив новостей Прошлые опросы Форматы файлов Группы Последние комментарии Техподдержка

:: Детали раздачи
Торрент раздача является мультитрекерной — учтите, количество раздающих не будет совпадать с количеством участников на сайте (скачивание на клиентской стороне зависит от настроек uTorrent клиент программы, настройки -> Включить DHT, Обмен пирами и Поиск лок-х пиров).
Если висит надпись, пиры по нулям - не бойтесь, возможность скачать повторно торрент раздачу - есть. Попробуйте, в случае отказа - прокоментируйте или нажмите на "Позвать скачавших".

Весь КВН-1987/88 (Высшая лига)

Скачать
Магнет
ПомощьКак скачать раздачу
Поделиться
Теги / Метки[Не выбрано]
Постер
ОписаниеЛюбите ли вы КВН так, как любим его мы?
Умеете ли вы ценить игру, даже если в ней участвуют не ваши самые-самые команды?
Готовы ли вы пересматривать любимые игры по нескольку раз?
А так же беречь их, лелеять, аккуратно складывать в красивые коробочки,
которые потом будут лежать на самых модных полках вашего дома?
Тогда нам по пути!

Итак, МЕГАРАЗДАЧА - ВЕСЬ КВН 1987-88! Полный набор игр Высшей лиги.

Это более полные/лучшего качества игры сезона.

Основные принципы:
1. Нет необходимости скачивать все выпуски целиком, т.к. при использовании BitComet, uTorrent и остальных прогрессивных торрент-клиентов можно отметить лишь выпуски, необходимые именно вам.
2. Краткие техданные для каждого файла приведены ниже. Подробнее о каждом из них можно узнать, кликнув по первому спойлеру.
3. Любой желающий может присоединиться к раздаче, при наличии наших релизов у себя на компе (только имена должны совпадать!).
4. Скриншоты спрятаны под вторым спойлером.
5. Описание игры с amik.ru под третьим спойлером.
6. Афишка kvnforall под четвёртым спойлером.

Краткое содержание
Телевизионную группу переполняли творческие планы. К тому же в ней появилось новое действующее лицо - Ю.С.Гусман - режиссер-консультант. В первую очередь время отыгрыша конкурсов было безжалостно урезано, оно стало измеряться даже не в минутах, а в секундах:

* "визитная карточка" (так стало называться приветствие) - 200 секунд,
* "домашнее задание" - 300 секунд,
* импровизационные конкурсы - 100 секунд.

На сцене появились огромные часы с соответствующими делениями, оснащенные к тому же мигалкой, которая начинала работать, как только команда превышала дозволенное время. Одно только это нововведение сразу же сломало стереотипы КВНовских жанров, процветавших в первом сезоне и тянущихся со времен 60-х. (Достаточно сказать, что домашнее задание одесситов в четвертьфинальной игре шло на сцене 28 минут!)

Поначалу в играх сезона было введено понятие "дежурной команды", которая должна была создавать дополнительный антураж передачи и курировать играющие команды. Она же выступала на сцене с небольшой программой, которая продолжала идею конкурса "Добро пожаловаться", изжившего себя в первом сезоне, но продолжающего привлекать публицистической конкретностью.

1/4 - 1: дгу,, мгу | вне конкурса: огу

тех. данные
General
Complete name : M:\torrent\kvn.1987-88.v.01.1.1-4.www.kvnforall.info.avi
Format : AVI
Format/Info : Audio Video Interleave
File size : 798 MiB
Duration : 2h 14mn
Overall bit rate : 830 Kbps
Writing application : VirtualDubMod 1.5.10.1 (build 2366/release)
Writing library : VirtualDubMod build 2366/release

Video
Format : MPEG-4 Visual
Format settings, BVOP : Yes
Format settings, QPel : No
Format settings, GMC : 2 warppoints
Format settings, Matrix : Default
Muxing mode : Packed bitstream
Codec ID : DX50
Codec ID/Hint : DivX 5
Duration : 2h 14mn
Bit rate : 756 Kbps
Width : 512 pixels
Height : 384 pixels
Display aspect ratio : 4/3
Frame rate : 25.000 fps
Resolution : 24 bits
Scan type : Progressive
Bits/(Pixel*Frame) : 0.154
Stream size : 727 MiB (91%)
Writing library : DivX 5.1.0 (UTC 2003-09-02)

Audio
Format : MPEG Audio
Format version : Version 1
Format profile : Layer 3
Codec ID : 55
Codec ID/Hint : MP3
Duration : 2h 14mn
Bit rate mode : Constant
Bit rate : 64.0 Kbps
Channel(s) : 1 channel
Sampling rate : 44.1 KHz
Resolution : 16 bits
Stream size : 61.6 MiB (8%)
Alignment : Split accross interleaves
Interleave, duration : 40 ms (1.00 video frame)
Interleave, preload duration : 500 ms
Writing library : LAME3.93
Encoding settings : CBR


скриншот
http://i3.fastpic.ru/big/2009/1023/a0/7fb56f1f4d7f2d48b419cec9124afca0.png


описание с amik.ru
В первой его игре команда Днепропетровского университета относительно легко победила соперников из МГУ. И никто тогда не знал, конечно, что КВНщики ДГУ станут родоначальниками нового "драматургического" жанра музыкального конкурса, в котором покажут немало маленьких шедевров, а в 1993 году превратятся в единственный в своем роде Государственный Молодежный Театр КВН ДГУ. И никто не знал, разумеется, что капитан москвичей Володя Перепелкин станет автором множества известнейших рекламных клипов и автором популярной передачи "Сам себе режиссер", что Алексей Кортнев скоро станет кумиром московской "тусовки", возглавив группу "Несчастный случай", а Валдис Пельш через девять лет вернется в КВН уже в качестве члена жюри, будучи популярнейшим телевизионным ведущим...


афишка kvnforall
Жюри:
Композитор, автор песни «В урочный день» Юрий Саульский
Заведующий отделом культуры Центрального комитета ВЛКСМ - Михаил Шмойлов
Кинорежиссер Георгий Данелия
Капитан команды КВН города Баку Юлий Гусман
Известный хоккеист Владислав Третьяк
Главный редактор еженедельника ”Собеседник” - Владимир Снегирев
Известный киноактер - Георгий Бурков

Команды всё время игры находились на сцене. В связи с большим количеством конкурсов был введен лимит времени. Угличское объединение ”Чайка” сделало для Клуба специальные напольные часы - секундомер.

Визитка: чуть выше среднего. ДГУ - 4,3; МГУ - 5,0

Разминка. Cуть: ответить на три вопроса названия передачи «Что? Где? Когда» о птичке, которая претендует на звание символа КВН (будущий КиВиН).
Уже лучше. ДГУ - 5,3; МГУ- 4,6

Домашнее задание. «Правила хорошего тона». Здесь явное превосходство ДГУ. МГУ - слабо: МГУ - 5,0;
ДГУ - б,2

Конкурс ”Ходят слухи”. Суть: 7 человек, каждый говорит 2 фразы: первую фразу - формулировку и конечную. Первая и конечная фраза. Обмениваются, 60 секунд думают и проводят цепочку.
Слабенько. Очень даже слабо: ДГУ - 2,6; МГУ - 2,3

Капитанский конкурс. Капитан команды КВН Днепропетровска - Яков Минасян. Капитан команды КВН МГУ - Владимир Перепелкин. У капитанов проверяли профессиональную подготовку, затем творческие способности, и затем морально-психологические качества.
Оценки за капитанский:
МГУ 3,7
ДГУ - 3,4.

Уже чувствется явное превосходство ДГУ над МГУ.

Выездной конкурс. МГУ - не очень, ДГУ - очень хорошо:
МГУ - 2,9
ДГУ - 3,7

Конкурс «Видеоклип». Хорошо, но могло быть и лучше:МГУ - 3,0; ДГУ - 3,1

В конце выступила команда ОГУ вне конкурса.

Итого: МГУ - 26,5; ДГУ - 28,6. Закономерная победа ДГУ, и вполне ожидаемая.

1/4 - 2: бсхи,, игми (отказались от утешительной) | вне конкурса: мхти

тех. данные
General
Complete name : M:\torrent\kvn.1987-88.v.02.2.1-4.www.kvnforall.info.(v2.0).avi
Format : AVI
Format/Info : Audio Video Interleave
File size : 1.36 GiB
Duration : 1h 56mn
Overall bit rate : 1 667 Kbps
Writing application : VirtualDubMod 1.5.4.1 (build 2178/release)
Writing library : VirtualDubMod build 2178/release

Video
Format : MPEG-4 Visual
Format settings, BVOP : Yes
Format settings, QPel : No
Format settings, GMC : No warppoints
Format settings, Matrix : Default
Muxing mode : Packed bitstream
Codec ID : DX50
Codec ID/Hint : DivX 5
Duration : 1h 56mn
Bit rate : 1 576 Kbps
Width : 640 pixels
Height : 480 pixels
Display aspect ratio : 4/3
Frame rate : 25.000 fps
Resolution : 24 bits
Colorimetry : 4:2:0
Scan type : Progressive
Bits/(Pixel*Frame) : 0.205
Stream size : 1.28 GiB (95%)
Writing library : DivX 5.2.1 (WaffleDay) (UTC 2004-09-08)

Audio
Format : MPEG Audio
Format version : Version 1
Format profile : Layer 3
Codec ID : 55
Codec ID/Hint : MP3
Duration : 1h 56mn
Bit rate mode : Variable
Bit rate : 80.8 Kbps
Minimum bit rate : 96.0 Kbps
Channel(s) : 2 channels
Sampling rate : 32.0 KHz
Resolution : 16 bits
Stream size : 67.3 MiB (5%)
Alignment : Aligned on interleaves
Interleave, duration : 36 ms (0.90 video frame)
Interleave, preload duration : 498 ms
Writing library : LAME3.97b
Encoding settings : ABR


скриншот
http://i3.fastpic.ru/thumb/2009/1023/ec/31ab4b9726f214a94b3bfe21dfba58ec.jpeg


описание с amik.ru
Вторая игра была новогодней. Начиналась она увертюрой "В лесу родилась елочка" в исполнении струнного оркестра дежурной команды МХТИ, которым дирижировал ведущий. И заканчивалась фейерверком на улице под специально написанную по этому поводу новогоднюю песню. Хотя сама игра между командами Башкирского сельскохозяйственного института из Уфы и Ивановского государственного медицинского института получилась довольно слабой. Проиграв, ивановцы отказались участвовать в утешительной игре, составив единственный подобный прецедент в истории Клуба.
прим.: не согласен, что игра была слабой. бсхи в первом конкурсе спели замечательную песню "арго" и выдали несколько умных шуток. разминка была хороша и исключительно по теме. умная и немного смешная. даже жюри интеллигентно так задействовали.


афишка kvnforall
Вторая игра сезона 1987-1988, к тому же Новогодняя. Как всегда улыбнул пролог: Масляков дирижировал небольшим оркестром.
В суровом противостоянии сошлись новички Клуба: команды Башкирского Сельско-Хозяйственного Института и Ивановского Государственного Медицинского Института.

Жюри: Леонид Филатов,Михаил Шмойлов,Ярослав Голованов,Юлий Гусман,Владислав Третьяк,Георгий Бурков

Приветствие. Достаточно ровно,не очень смешно (даже тогда),но "ребята старались" ©

Разминка: Нужно угадать,что означают карнавальные костюмы соперников.
В основном шутили на злобу дня,но несколько раз было смешно.Линда и Пол МакКартни запомнились ещё с тех пор.Уфа однозначно лучше

Капитанский: Гадание на кофейной гуще.Конечно не Марфин с Агранатом.Парни больше выглядели умными,чем смешными.

Домашнее задание: очевидное-невероятное.Примерно равное,не плохо,но и не супер.

Выступление дежурной команды МХТИ.Добро пожаловаться.Отклик на жалобы зрителей.Сделано в жанре видеофильетона

Кинокункурс.В начале игры командам показали ролик,смонтированный из мультфильма Тайна третьей планеты и предложили его озвучить.На всё-про всё один час.Озвучивали в оснавном цитатами из популярных советских фильмов.Получилось смешно.Сегодня сделали бы наверное в стиле марихуновых галлюцинаций

1/4 - 3: нгу,, плми | вне конкурса: хвваиу

тех. данные
General
Complete name : M:\torrent\kvn.1987-88.v.03.3.1-4.www.kvnforall.info.(v2.0).avi
Format : AVI
Format/Info : Audio Video Interleave
File size : 626 MiB
Duration : 1h 52mn
Overall bit rate : 780 Kbps
Writing application : VirtualDubMod 1.5.10.1 (build 2366/release)
Writing library : VirtualDubMod build 2366/release

Video
Format : MPEG-4 Visual
Format settings, BVOP : Yes
Format settings, QPel : No
Format settings, GMC : 2 warppoints
Format settings, Matrix : Default
Muxing mode : Packed bitstream
Codec ID : DX50
Codec ID/Hint : DivX 5
Duration : 1h 52mn
Bit rate : 707 Kbps
Width : 512 pixels
Height : 384 pixels
Display aspect ratio : 4/3
Frame rate : 25.000 fps
Resolution : 24 bits
Scan type : Progressive
Bits/(Pixel*Frame) : 0.144
Stream size : 567 MiB (91%)
Writing library : DivX 5.1.0 (UTC 2003-09-02)

Audio
Format : MPEG Audio
Format version : Version 1
Format profile : Layer 3
Codec ID : 55
Codec ID/Hint : MP3
Duration : 1h 52mn
Bit rate mode : Constant
Bit rate : 64.0 Kbps
Channel(s) : 1 channel
Sampling rate : 44.1 KHz
Resolution : 16 bits
Stream size : 51.3 MiB (8%)
Alignment : Split accross interleaves
Interleave, duration : 40 ms (1.00 video frame)
Interleave, preload duration : 500 ms
Writing library : LAME3.93
Encoding settings : CBR


скриншот
http://i3.fastpic.ru/big/2009/1023/18/47bd9ed436c69a16df33f0a5e87d5418.png


описание с amik.ru
Третья игра, состоявшаяся уже весной, получилась великолепной. Встречались в ней первая в Клубе питерская команда 1-го Ленинградского медицинского института и КВНщики Новосибирского государственного университета - в будущем самая титулованная команда, трижды становившаяся чемпионом. Однако первая победа далась сибирякам нелегко. После половины конкурсов счет на табло был равным. Чаша весов стала клониться в сторону НГУ лишь после выездного конкурса, проходившего на льду дворца спорта Сокольники. И окончательно победитель определился лишь в их последней блестящей полуимпровизации на тему "Студенческая мода". Это именно здесь прозвучала знаменитая песенка "Ах, верь мне, Саш!..", породившая бесконечную череду КВНовских шуток в направлении А.Маслякова. За этот номер его исполнительница Лариса Рябоконь позже стала первой Мисс КВН.


афишка kvnforall
Чем примечательна игра - прежде всего тем, что, именно на этой игре появилось название КИВИН.
В Питере были замечены доктор ШАЦ, изрядно упитанный, в НГУ - все тот же Бочарик, молодой ДУДА. И вообще - не сразу НГУ стали такими изящными и крутыми.
Вообщем, смотрите и кайфуйте.

утешительная: мгу,, плми | вне конкурса: ваз

тех. данные
General
Complete name : M:\torrent\kvn.1987-88.v.04.comfort.www.kvnforall.info.(v2.0).avi
Format : AVI
Format/Info : Audio Video Interleave
File size : 1.28 GiB
Duration : 2h 11mn
Overall bit rate : 1 394 Kbps
Writing application : Nandub v1.0rc2
Writing library : Nandub build 1853/release

Video
Format : MPEG-4 Visual
Format settings, BVOP : Yes
Format settings, QPel : No
Format settings, GMC : No warppoints
Format settings, Matrix : Default
Muxing mode : Packed bitstream
Codec ID : DX50
Codec ID/Hint : DivX 5
Duration : 2h 11mn
Bit rate : 1 283 Kbps
Width : 640 pixels
Height : 480 pixels
Display aspect ratio : 4/3
Frame rate : 25.000 fps
Resolution : 24 bits
Colorimetry : 4:2:0
Scan type : Progressive
Bits/(Pixel*Frame) : 0.167
Stream size : 1.18 GiB (92%)
Writing library : DivX 5.2.1 (WaffleDay) (UTC 2004-09-08)

Audio
Format : MPEG Audio
Format version : Version 1
Format profile : Layer 3
Codec ID : 55
Codec ID/Hint : MP3
Duration : 2h 11mn
Bit rate mode : Variable
Bit rate : 99.9 Kbps
Channel(s) : 2 channels
Sampling rate : 32.0 KHz
Resolution : 16 bits
Stream size : 94.2 MiB (7%)
Alignment : Aligned on interleaves
Interleave, duration : 36 ms (0.90 video frame)
Interleave, preload duration : 467 ms


скриншот
http://i3.fastpic.ru/thumb/2009/1023/68/74c4dab7a13546119a221e93ac522f68.jpeg


описание с amik.ru
Поражение "сломало" ленинградцев и в утешительной игре они проиграли команде Московского университета. Правда, результат игры был неочевиден. Многие телезрители сочли, что жюри судило необъективно, и забросали редакцию письмами. Результат встречи пересмотреть было, конечно, невозможно. Однако А.Масляков счел своим долгом сказать об этом в следующем эфире и заменить наиболее "подозрительных" членов жюри. Вообще говоря, объективность судейства не раз становилась предметом бурных обсуждений.
прим: очень понравилась разминка. сейчас бы такую идею попробовать.
ещё ремикс "хирургия" в домашке плми хорош - почему его судьи не оценили только?
ну а рецензия капитана мгу и то, как он маслякова на место ставил - это вообще нечто. запомните его фамилию - перепёлкин. больше не припомню чтоб кто-нибудь маслякова гонял.


афишка kvnforall
Утешительная игра с призом в виде выхода в полуфинал для двух неудачников четвертьфиналов: команд Московского Государственного Университета и Первого Ленинградского Медицинского Института.Команда из Иваново отказалась играть,что является единственным случаем в истории КВН.

Жюри: Всеволд Шиловский,Михаил Шмойлов,Владислав Третьяк,Ярослав Голованов,Евгений Лазарев,Михаил Марфин

Тема игры: театр
Приветствие: Начинается с представления спонсоров команд небольшим рекламным видеороликом.Смотрится со снисходительной улыбкой,довольно примитивно.Первой выступает команда МГУ.Немного вяловато,Финальная песня поче-то сильно напоминает Нас не догонят от Тату (?).Первый Медицинский вуступил живее,но разрывных шуток не было.

Разминка: Театральный анонс.Команда показывает афишу,соперники должны прокомментировать.1ЛМИ порвал МГУ

Домашнее задание: Искусство перевоплощения.Ленинград-очень хорошо,Мгу-несмешное выступление с пафосной концовкой.Судьи поставили по 4 балла из 7 возможных обеим командам.Зал этого не понял

Капитанский: После озвучивания пантомимы соперника капитаны должны были поставить с залом заключительную сцену из Ревизора.Затем были показаны короткие спектакли на тему,заданные в начале игрыи и рецензии капитанов.Шац играл Ватсон-джана.Скучновато,но МГУ явно лучше

Внеконкурсное выступление команды ВАЗа.

Выездной: На модную тогда тему импрессарио

1/2 - 1: нгу & дгу

тех. данные
General
Complete name : M:\torrent\kvn.1987-88.v.05.1.1-2.www.kvnforall.info.avi
Format : AVI
Format/Info : Audio Video Interleave
File size : 738 MiB
Duration : 1h 42mn
Overall bit rate : 1 009 Kbps
Writing application : VirtualDubMod 1.5.10.1 (build 2366/release)
Writing library : VirtualDubMod build 2366/release

Video
Format : MPEG-4 Visual
Format settings, BVOP : Yes
Format settings, QPel : No
Format settings, GMC : 2 warppoints
Format settings, Matrix : Default
Muxing mode : Packed bitstream
Codec ID : DX50
Codec ID/Hint : DivX 5
Duration : 1h 42mn
Bit rate : 935 Kbps
Width : 512 pixels
Height : 384 pixels
Display aspect ratio : 4/3
Frame rate : 25.000 fps
Resolution : 24 bits
Scan type : Progressive
Bits/(Pixel*Frame) : 0.190
Stream size : 685 MiB (93%)
Writing library : DivX 5.2.1 (WaffleDay) (UTC 2004-09-08)

Audio
Format : MPEG Audio
Format version : Version 1
Format profile : Layer 3
Codec ID : 55
Codec ID/Hint : MP3
Duration : 1h 42mn
Bit rate mode : Constant
Bit rate : 64.0 Kbps
Channel(s) : 1 channel
Sampling rate : 48.0 KHz
Resolution : 16 bits
Stream size : 46.9 MiB (6%)
Alignment : Aligned on interleaves
Interleave, duration : 40 ms (1.00 video frame)
Interleave, preload duration : 504 ms


скриншот
http://i3.fastpic.ru/big/2009/1023/a0/29d889286c84bf9b8360800c028ad2a0.png


описание с amik.ru
Это была потрясающая встреча. Пожалуй, первая из игр, которые и сегодня можно смотреть без поправки на ретро, хотя темы шуток давно потеряли свою актуальность. Это именно в этой игре днепропетровцы продемонстрировали свой "червонец в рубчик", в виде которого предприимчивые кооператоры вскоре начали выпускать полотенца. И именно в этой игре новосибирцы сказали фразу, которая перекочевала на круглые значки и которая до сих пор считается лучшей КВНовской шуткой первого десятилетия: "Партия, дай порулить!" (автор - Константин Наумочкин - с этой фразой вошел в "Сборник цитат 20-го века"). И это была первая игра в истории нового КВНа, которая ко всеобщему восторгу болельщиков закончилась вничью.
прим.: сама игра мне не очень понравилась несмотря на то, что играют две команды, которые я очень уважаю.
почти все шутки построены на высмеивании власти. есть несколько очень сильных без этого, но уж очень они размазаны по всем выступлениям.
найбольшая их концентрация в домашке нгу.
очень понравилась речь гостей в финале - переводчик юморист.


афишка kvnforall
Тема игры Новоселье.Последняя (как они думают) игра,показанная в записи.Начиная с финала КВН будет идти в прямом эфире.

Жюри: Ярослав Голованов,Александр Пономарёв,Виктор Мережко,Андрей Мягков,Александр Штоколов,Юлий Гусман

Приветствие: Начинает НГУ.КВН-это лотерея,ведь в эфир проходит только 6 из 36.Поднимает голдову молодой советский стриптиз.Знаменитый шмат сала с горилкой.Очень хорошо 5,7
ДГУ:Сосед-сибиряк в Москве гораздо лучше,чем сосед-мосвич в Сибири.Церемония запуска кошки. 5,3

Разминка: Команда показывает соперникам предмет обстановки,а соперники обьясняют,зачем это нужно новосёлам.Днепр явно лусчше. НГУ 3,7, ДГУ 5,0

Видеоконкурс Некоммерческая реклама.ДГУ рекламирует чувство долга.Сальери травит Моцарта в кооперативном кафе 2,3.НГУ-реклама социальной справедливости 2,8

Капитанский.Яков Миносян (ДГУ) против Валерия Мелехова (НГУ).Первая часть доволь скчная.Масляков задаёт вопросы,на которые капитаны должны ответить правильно или смешно.На6 вопросов было только 2 смешных ответа.Во второй части конкурса капитаны должны произнести предвыборную речь.На злобу дня.Нужно срочно выйти на мировой рынок и что-нибудь там купить (Миносян).ДГУ 3,5, НГУ 2,8
Общий счёт ДГУ 16,1, НГУ 15,0

Выездной конкурс: Репортаж с выставки авангарда.Новосибирск смешнее.Чего стоит только фраза-что-бы корова ментше ела и давала больше молока её нужно меньше кормить и больше лоить.НГУ 4,0, ДГУ 3,2
Общий счёт ДГУ 19,3, НГУ 19,0

Домашнее задание: Дворец молодёжи.ДГУ-золотой ключик от Дворца Молодёжи.За это боролись наша отцы с нашими дедами.Лиса Алиса и кот Базилио приглашают Буратино и его друзей в будущее,о котором мечтал папа Карло (Маркс).Кукольный театр Карабаса-Барабаса.Очень хорошее выступление 6,7
НГУ-Американская сьёмочная нруппа во Дворце Молодёжи.Это у вас порнография,а у нас художественная самодеятельность.Отличное выступление,фраза Партия,дай порулить порвала зал и предопределила участие НГУ в финале 7,0
Общий итог: ДГУ 26,0, НГУ 26,0.Первая в истории ничья.На мой взгляд совершенно справедливая.

1/2 - 2: мгу,, бсхи

тех. данные
General
Complete name : M:\torrent\kvn.1987-88.v.06.2.1-2.www.kvnforall.info.avi
Format : AVI
Format/Info : Audio Video Interleave
File size : 647 MiB
Duration : 1h 19mn
Overall bit rate : 1 134 Kbps
Writing application : VirtualDubMod 1.5.10.1 (build 2366/release)
Writing library : VirtualDubMod build 2366/release

Video
Format : MPEG-4 Visual
Format settings, BVOP : Yes
Format settings, QPel : No
Format settings, GMC : 2 warppoints
Format settings, Matrix : Default
Muxing mode : Packed bitstream
Codec ID : DX50
Codec ID/Hint : DivX 5
Duration : 1h 19mn
Bit rate : 1 060 Kbps
Width : 512 pixels
Height : 384 pixels
Display aspect ratio : 4/3
Frame rate : 25.000 fps
Resolution : 24 bits
Scan type : Progressive
Bits/(Pixel*Frame) : 0.216
Stream size : 605 MiB (94%)
Writing library : DivX 5.2.1 (WaffleDay) (UTC 2004-09-08)

Audio
Format : MPEG Audio
Format version : Version 1
Format profile : Layer 3
Codec ID : 55
Codec ID/Hint : MP3
Duration : 1h 19mn
Bit rate mode : Constant
Bit rate : 64.0 Kbps
Channel(s) : 1 channel
Sampling rate : 48.0 KHz
Resolution : 16 bits
Stream size : 36.5 MiB (6%)
Alignment : Aligned on interleaves
Interleave, duration : 40 ms (1.00 video frame)
Interleave, preload duration : 504 ms


скриншот
http://i3.fastpic.ru/big/2009/1023/3f/ae7301ca58fe5dc867153d247ecfd53f.png


описание с amik.ru
Второй полуфинал между командами МГУ и БСХИ по качеству резко контрастировал с первым. "Родительский комитет" даже решил не вручать свой пиджак ни одному из соперников. Он достался выступившей с заявкой на участие в следующем сезоне первой военной команде в истории Клуба из Харьковского высшего военного инженерного авиационного училища (ХВВИАУ).
прим.: абсолютно неинтересная игра


афишка kvnforall
Описание: Второй полуфинал между командами МГУ и БСХИ по качеству резко контрастировал с первым. "Родительский комитет" даже решил не вручать свой пиджак ни одному из соперников. Он достался Александру Маслякову, который предложил в конкурсе капитанов провести третий раунд.

Афишка: Тема игры - «Всё о спорте».

В начале игры команды получили задание на выездной конкурс. Команды поехали в Северное спортивное ядро спорткомплекса "Лужники". Им нужно было установить так называемый "мировой рекорд" в любом виде спорта

1.Приветствие "ФизкультПривет". МГУ показало сценку. Где за цензурой следил бумеранг. БСХИ посвятило Приветствие Москве.
БСХИ - 3,3
МГУ - 4,0

После приветствия команды получили задание на игровой конкурс, который проходил в паркетном зале МДМ.
2.Разминка «Зарядка». Суть: каждая команда предлагает соперникам какой-либо спортивный снаряд или что-то вроде тренажера. Соперники за 30 секунд решают, для чего это можно использовать.
МГУ - 4,5 (8,5)
БСХИ - 3,5 (6,8)

3.Выездной конурс. Несколько человек от каждой команды поехали в начале игры в Северное спортивное ядро спорткомплекса "Лужники". Им предстояло сделать мировой рекорд в каком-нибудь виде спорта. БСХИ "вырастило" чемпиона-бюрократа. МГУ же вырастило "шахматиста-альпиниста".
БСХИ - 2,7 (9,5)
МГУ - 2,8 (11,3)

4.Конкурс капитанов. Капитан команды БСХИ - Владимир Боровиков и капитан МГУ - Владимир Перепелкин.Суть: ринг. Первый раунд - один из капитанов начинает интеллектуальное нападение констатацией какого-то не очень приятного для соперника факта, после этого капитаны обмениваются серией коротких ударов, которые начинаются со слов «ничего подобного». Каждая серия длится не более 1 минуты.
МГУ - 1,7 (13,0)
БСХИ - 2,2 (11,7)

5.Игровой конкурс в паркетном зале МДМ. Команды должны придумать новую игру. БСХИ придумало игру, целю которой является "строительство развитого общество". МГУ придумало игру под названием "Физкультурный парад"
БСХИ - 3,3 (15,0)
МГУ - 3,5 (16,5)

6.Домашнее задание на тему «Спорт, спорт, спорт». МГУ изобразил кросс, а БСХИ разговаривают на тему политики, и, немного, спорта.
МГУ - 4,3 (20,8)
БСХИ - 4,3 (19,3)

Результат игры -
МГУ - 20,8
БСХИ - 19,3

Впечатления: Кто виноват, кто прав, судить не нам,
Да только... (продолжите сами)

На этой игре известная спортсменка, члена Олимпийской сборной СССР по волейболу, Татьяна Тройнова вручила приз за самый весомый вклад в победу команды Кортневу Алексею (будущему солисту группы «Несчастный случай»).

Родительский комитет определил лучшую шутку игры - предложение Александра Васильевича Маслякова провести третий раунд в конкурсе капитанов. Ведущему был вручен пиджак.

финал: нгу, дгу, мгу

тех. данные
General
Complete name : M:\torrent\kvn.1987-88.v.07.final.www.kvnforall.info.(v2.0).avi
Format : AVI
Format/Info : Audio Video Interleave
File size : 1.16 GiB
Duration : 1h 52mn
Overall bit rate : 1 474 Kbps
Writing application : Nandub v1.0rc2
Writing library : Nandub build 1853/release

Video
Format : MPEG-4 Visual
Format settings, BVOP : Yes
Format settings, QPel : No
Format settings, GMC : No warppoints
Format settings, Matrix : Default
Muxing mode : Packed bitstream
Codec ID : DX50
Codec ID/Hint : DivX 5
Duration : 1h 52mn
Bit rate : 1 378 Kbps
Width : 640 pixels
Height : 480 pixels
Display aspect ratio : 4/3
Frame rate : 25.000 fps
Resolution : 24 bits
Scan type : Progressive
Bits/(Pixel*Frame) : 0.179
Stream size : 1.08 GiB (93%)
Writing library : DivX 5.2.1 (WaffleDay) (UTC 2004-09-08)

Audio
Format : MPEG Audio
Format version : Version 1
Format profile : Layer 3
Codec ID : 55
Codec ID/Hint : MP3
Duration : 1h 52mn
Bit rate mode : Variable
Bit rate : 86.0 Kbps
Channel(s) : 2 channels
Sampling rate : 32.0 KHz
Resolution : 16 bits
Stream size : 69.2 MiB (6%)
Alignment : Aligned on interleaves
Interleave, duration : 36 ms (0.90 video frame)
Interleave, preload duration : 442 ms


скриншот
http://i3.fastpic.ru/thumb/2009/1023/7f/f348c00cef3507ba8ac6a4c01619aa7f.jpeg


описание с amik.ru
Встреча эта ознаменовалась двумя творческими удачами. Это были заключительные эпизоды домашних заданий ДГУ и НГУ. Днепропетровцы закончили свое выступление знаменитым "Хозрасчетом", в котором открыли свою уникальную схему драматургического музыкального номера. Каждый куплет песни выходил петь новый герой, которые накапливались на сцене к моменту апофеоза. Открытие новосибирцев было не менее поразительным, хотя дальнейшего развития не получило. Они вообще отказались от финальной песни, заменив ее пантомимой, иллюстрирующей чудесный смешной и трогательный текст о "сумасшедшей планете", которая сорвалась с орбиты и устремилась к новым блистающим мирам просто из-за того, что все люди вдруг стали добрыми и честными...

Чемпионом этого самого длинного сезона КВН стала команда Новосибирского государственного университета, открыв тем самым свой победный счет, который вряд ли кому-нибудь удастся перекрыть в ближайшем будущем.


афишка kvnforall
Тема игры: научная конфереция.

Жюри: Ярослав Голованов,Виктор Мережко,Татьяна Догилева,Александр Пономарёв,Виктор Савиных,Андрей Мягков,Михаил Шмойлов,Юлий Гусман

Приветствие: Новогодний привет.
ДГУ: 4,8
Дед-Мороз-переходящий красный нос
МГУ: 4,5
Как хорошо поговорить о чём-то вечном....дружбе,любви,временных трудностях
НГУ: 5,5
Наступает новая эра-уходит Бахус,приходи Эрос

Разминка: теория
На злобу дня.Отсутствие товаров в магазинах,качество советских товаров.Даже тогда было несмешно.Масляков недоволен,зал хмуро молчит.Единственный разрыв от НГУ.на вопрос-правда ли,что человек произошёл от обезьяны ответ-нет,неправда.как минимум от двух обезьян
Оценки:НГУ 3,1,МГУ 2,9 (Гусман поставил единицу),ДГУ 3,2

Музыкалка: Музыкальный урок комьютерной грамотности.Тема была задана перед началом игры,у авторов было 25 минут на сценарий.МГУ победил,о чём Пельш гордо рассказывал через 10 лет.
ДГУ:30 лет назад СССР принял на себя однносторонние обязательства не применять ЭВМ первыми.Традиционно хорошая музыкалка от днепров,зал принял очень хорошо.4,8
МГУ.Участвуют Пельш и Кортнев."конкурс одной песни"на музыку Пластилиновой вороны.Бодро,весело и актуально.5,0
НГУ.Неуловимые мыслители.Советские компьютеры хоть и производят всего одну операцию в секунду,но зато очень быстро.4,0

Капитанский. Импровизация .довольно средне.Миносян (ДГУ) 2,4.Мелехов (НГУ) 3,3,Перепёлкин (МГУ) 2,1 (две единицы)

Выездной: Научная экспедиция.100 секунд на конкурс
ДГУ 3,1,Мгу 3,,НГУ 3,8

Практический конкурс: Похоже на разминку,за 30 секунд команды должны найти применение прибору,который им показывают соперники.
МГУ 2,6,ДГУ 2,6,НГУ 3,5

Домашнее задание: Чудеса науки.Отлично.МГУ слабовато,Новосибирск очень хорошо и Днепр-гениально.
Оценки: ДГУ 7,0,НГУ 6,6,МГУ 6,0

Общие оценки: НГУ 29,9,ДГУ 27,9,МГУ 25,7

Примечание: ко всем играм прилагаются чаптер-файлы (.chp) для более комфортного просмотра (например, в ZoomPlayer (shift-c или alt-n во время просмотра))

P. S. моя первая (и, надеюсь, единственная) раздача в торренте если что
Скриншоты
Похожие файлы
Загрузка / Обновление
КатегорияTV / Документалки RSS лента
Просмотров109 раз (a)
Взят0 раз (a)
Файлы14
Размер6.54 GB (7,018,055,749 байт)
Добавлен
РаздалViKa  (Искать торренты)
Участники
Участники - Загрузка / Обновление
Просматривают Просматривают Загрузка...

-†- ¿? -†-
« Предыдущая - † Страница † - Следующая »

:: Список Комментариев
Нет комментариев.

 Нет комментариев
Вам запрещенно редактировать, создать или удалять комментарии.
shpv© 2007-2014
Страничка сформирована за 1.079 секунд.
Яндекс.Метрика Rambler's Top100