скачать торрент трекер Friends
 
 Главная  •  Торренты  •  Новые релизы  •  Форум  •   •  Персоны кино  •  Правила  •  ЧаВо

Язык интерфейса
Язык интерфейса:


Привет, Гость
[15] из [15]
Введите Логин:
Введите Пароль:
Регистрация
Восстановить Пароль

Линки
АнекдотыБанкоматВсе теги / меткиДополнительные услугиТехподдержка

Главное Меню
 Главная Торренты Релизы за сегодня Персоны кино Запросы / Предложения (3) Правила ЧаВо Проверка BB кодов Топ 10 Архив новостей Прошлые опросы Форматы файлов Группы Последние комментарии Техподдержка

:: Детали раздачи
Торрент раздача является мультитрекерной — учтите, количество раздающих не будет совпадать с количеством участников на сайте (скачивание на клиентской стороне зависит от настроек uTorrent клиент программы, настройки -> Включить DHT, Обмен пирами и Поиск лок-х пиров).
Если висит надпись, пиры по нулям - не бойтесь, возможность скачать повторно торрент раздачу - есть. Попробуйте, в случае отказа - прокоментируйте или нажмите на "Позвать скачавших".

Папины дочки / Сезон: 1-20 / Серии: 1-410 (Сергей Алдонин, Александр Жигалкин, Ирина Васильева, Валентин Козловский, Эдуард Радзюкевич, Артур Богатов, Аглая Курносенко)

Скачать
Магнет
ПомощьКак скачать раздачу
Поделиться
Теги / Меткикомедия, ситком
Постер
ОписаниеГод выпуска: 2009-2012
Производство: YBW Group по заказу СТС
Жанр: Комедия, ситком
Продолжительность: ~24 минут серия
Субтитры: Нет

Режиссёр: Сергей Алдонин, Александр Жигалкин, Ирина Васильева, Валентин Козловский, Эдуард Радзюкевич, Артур Богатов, Аглая Курносенко

В ролях: Андрей Леонов, Мария Семкина, Александр Олешко, Настя Сиваева, Даша Мельникова, Лиза Арзамасова, Катя Старшова, Александр Самойленко, Татьяна Орлова, Мирослава Карпович

Описание: Главный герой сериала — Сергей Алексеевич Васнецов, практикующий семейный психотерапевт. Его жена уходит к хоккеисту, взвалив на него груз воспитания пяти дочерей, разных по возрасту, характеру и увлечениям. Самая старшая — Маша — гламурная красавица, вторая — Даша — готесса, третья — Женя — спортсменка-пацанка, четвёртая — Галина Сергеевна — вундеркинд и младшая — Пуговка (Полина) — маленькая озорница и сладкоежка. Несмотря на все возникающие проблемы, Васнецовы не унывают. Удача приходит в семью Васнецовых в лице богатой клиентки Оксаны — жены олигарха Василия Федотова, которая мечтает о ребёнке. Решая её семейные проблемы, Сергей неожиданно влюбляется, но никак не может признаться в любви… Позже выяснится, что он любит Оксану лишь в «платоническом смысле». А Оксана всё же беременеет от Василия и рожает от него дочь. А вскоре, почти через полтора года, возвращается жена Сергея Алексеевича и мама девочек Людмила Сергеевна. Но семье не суждено скоро восстановится. Не простив измену жены, Сергей Алексеевич уезжает к родителям в Красноярск, оставив дочек на попечение мамы.

Все раздачи сериала: http://rutracker.org/forum/tracker.php?f=856&nm...+%E4%EE%F7%EA%E8

Сэмпл: http://multi-up.com/795067

Качество: SATRip
Формат: AVI
Видео кодек: XviD
Аудио кодек: MP3
Видео: 640x480, 25 fps, XviD build 1.1.2 ~1471 kbps avg, 0.192 bit/pixel
Аудио: 48 kHz, MP3, 2/0 (L,R) ch, ~128 kbps

MI
Общее
Полное имя : D:\Папины дочки\Папины дочки 001.avi
Формат : AVI
Формат/Информация : Audio Video Interleave
Размер файла : 247 Мбайт
Продолжительность : 21 м.
Общий поток : 1609 Кбит/сек
Программа кодирования : VirtualDubMod 1.5.10.2 (build 2540/release)
Библиотека кодирования : VirtualDubMod build 2540/release

Видео
Идентификатор : 0
Формат : MPEG-4 Visual
Профиль формата : Advanced Simple@L5
Параметр BVOP формата : 2
Параметр QPel формата : Нет
Параметр GMC формата : Без точки перехода
Параметр матрицы формата : Default (H.263)
Идентификатор кодека : XVID
Идентификатор кодека/Подсказка : XviD
Продолжительность : 21 м.
Битрейт : 1471 Кбит/сек
Ширина : 640 пикселей
Высота : 480 пикселей
Соотношение сторон : 4:3
Частота кадров : 25,000 кадров/сек
Цветовое пространство : YUV
Субдискретизация насыщенности : 4:2:0
Битовая глубина : 8 бит
Тип развёртки : Прогрессивная
Метод сжатия : С потерями
Бит/(Пиксели*Кадры) : 0.192
Размер потока : 226 Мбайт (91%)
Библиотека кодирования : XviD 1.1.2 (UTC 2006-11-01)

Аудио
Идентификатор : 1
Формат : MPEG Audio
Версия формата : Version 1
Профиль формата : Layer 3
Режим : Joint stereo
Расширение режима : MS Stereo
Идентификатор кодека : 55
Идентификатор кодека/Подсказка : MP3
Продолжительность : 21 м.
Вид битрейта : Постоянный
Битрейт : 128 Кбит/сек
Каналы : 2 канала
Частота : 48,0 КГц
Метод сжатия : С потерями
Размер потока : 19,7 Мбайт (8%)
Выравнивание : Разделение по промежуткам
Продолжительность промежутка : 40 мс. (1,00 видеокадр)
Время предзагрузки промежутка : 500 мс.


Скриншоты
http://i63.fastpic.ru/thumb/2014/0505/3f/51f4396408d87fb1000287fd0f96f93f.jpeg http://i62.fastpic.ru/thumb/2014/0505/9d/b83f77cb8d3bac153958ac1cbc900f9d.jpeg http://i64.fastpic.ru/thumb/2014/0505/c1/407730b7c2d84a7694b1cc72a7f0e9c1.jpeg http://i62.fastpic.ru/thumb/2014/0505/f3/2f47469fe773044e371aa997ec94a1f3.jpeg http://i62.fastpic.ru/thumb/2014/0505/15/bdbeb0a3ef25844d74ca02931abee415.jpeg http://i61.fastpic.ru/thumb/2014/0505/06/e920d5177fa60b2ad690d061ccbf4f06.jpeg http://i61.fastpic.ru/thumb/2014/0505/99/0d4c97de55c8e00fa61d4779a8986a99.jpeg http://i61.fastpic.ru/thumb/2014/0505/1b/6de5e7aaabf6f741f4e53d7c826f921b.jpeg
Похожие файлы
Загрузка / Обновление
КатегорияСериалы RSS лента
Просмотров239 раз (a)
Взят5 раз (a)
Файлы410
Размер102.63 GB (110,202,180,188 байт)
Добавлен
РаздалViKa  (Искать торренты)
Участники
Участники - Загрузка / Обновление
Просматривают Просматривают Загрузка...

-†- ¿? -†-
« Предыдущая - † Страница † - Следующая »

:: Список Комментариев
Нет комментариев.

 Нет комментариев
Вам запрещенно редактировать, создать или удалять комментарии.
shpv© 2007-2014
Страничка сформирована за 0.990 секунд.
Яндекс.Метрика Rambler's Top100