скачать торрент трекер Friends
 
 Главная  •  Торренты  •  Новые релизы  •  Форум  •   •  Персоны кино  •  Правила  •  ЧаВо

Язык интерфейса
Язык интерфейса:


Привет, Гость
[15] из [15]
Введите Логин:
Введите Пароль:
Регистрация
Восстановить Пароль

Линки
АнекдотыБанкоматВсе теги / меткиДополнительные услугиТехподдержка

Главное Меню
 Главная Торренты Релизы за сегодня Персоны кино Запросы / Предложения (3) Правила ЧаВо Проверка BB кодов Топ 10 Архив новостей Прошлые опросы Форматы файлов Группы Последние комментарии Техподдержка

:: Детали раздачи
Торрент раздача является мультитрекерной — учтите, количество раздающих не будет совпадать с количеством участников на сайте (скачивание на клиентской стороне зависит от настроек uTorrent клиент программы, настройки -> Включить DHT, Обмен пирами и Поиск лок-х пиров).
Если висит надпись, пиры по нулям - не бойтесь, возможность скачать повторно торрент раздачу - есть. Попробуйте, в случае отказа - прокоментируйте или нажмите на "Позвать скачавших".

Не покидай меня / Серии: 1-4 из 4 (Александр Франскевич-Лайе)

Скачать
Магнет
ПомощьКак скачать раздачу
Поделиться
Теги / Меткивоенный фильм, драма
Постер
ОписаниеГод выпуска: 2014
Производство: Россия, Марс Медиа Энтертейнмент
Жанр: Военный фильм, драма
Продолжительность: ~00:45:00
Субтитры: нет

Режиссёр: Александр Франскевич-Лайе

В ролях: Алексей Гуськов, Евгения Брик, Наталия Быстрова, Анна Рыцарева, Ольга Шувалова, Вероника Пляшкевич, Иван Мацкевич, Игорь Денисов

Описание: Для выполнения особо важного задания фронтовик-разведчик капитан Михасев должен получить под свое командование спецразведгруппу из четырех бойцов. Только эти бойцы оказываются… юными девушками. Вчерашним школьницам предстоит проникнуть на узел связи вражеской армии и парализовать его работу, обеспечив успех наступательной операции советских войск.

Все раздачи сериала: Не покидай меня

http://i29.fastpic.ru/big/2011/1030/ea/b1cf2ef64e49d1b69670beab9a74f7ea.png

Качество: HDTV 1080i
Формат: TS
Видео кодек: H.264
Аудио кодек: AC-3
Видео: MPEG4 Video (H264) 1920x1080, ~ 12,7 Мбит/сек, 25.00fps 0.246 bit/pixel
Аудио: AC-3, 6 канала, 48,0 КГц, ~384 kbps

Сторонней рекламы нет!

MediaInfo


ОбщееИдентификатор : 1 (0x1)Полное имя : F:\Не покидай меня HDTV 1080i\Не покидай меня 01_серия_HDTV_1080i.tsФормат : MPEG-TSРазмер файла : 4,35 ГбайтПродолжительность : 45 м.Общий поток : 13,8 Мбит/сек

ВидеоИдентификатор : 5481 (0x1569)Идентификатор меню : 1 (0x1)Формат : AVCФормат/Информация : Advanced Video CodecПрофиль формата : High@L4.0Параметр CABAC формата : ДаПараметр ReFrames формата : 3 кадраПараметры GOP формата : M=1, N=8Идентификатор кодека : 27Продолжительность : 45 м.Битрейт : 12,7 Мбит/секШирина : 1920 пикс.Высота : 1080 пикс.Соотношение сторон : 16:9Частота кадров : 25,000 кадр/секСтандарт вещания : ComponentЦветовое пространство : YUVПодвыборка цветности : 4:2:0Битовая глубина : 8 битТип развёртки : ЧересстрочнаяПорядок развёртки : Верхнее поле первоеБит/(Пиксели*Кадры) : 0.246Размер потока : 4,02 Гбайт (92%)Основные цвета : BT.709-5, BT.1361, IEC 61966-2-4, SMPTE RP177Характеристики трансфера : BT.709-5, BT.1361Коэффициенты матрицы : BT.709-5, BT.1361, IEC 61966-2-4 709, SMPTE RP177

АудиоИдентификатор : 5485 (0x156D)Идентификатор меню : 1 (0x1)Формат : AC-3Формат/Информация : Audio Coding 3Расширение режима : CM (complete main)Идентификатор кодека : 6Продолжительность : 45 м.Вид битрейта : ПостоянныйБитрейт : 384 Кбит/секКаналы : 6 каналовРасположение каналов : Front: L C R, Side: L R, LFEЧастота : 48,0 КГцБитовая глубина : 16 битМетод сжатия : С потерямиРазмер потока : 124 Мбайт (3%)Язык : Russian


Раздача группы: http://static.rutracker.org/ranks/rg_humor.gif

Отдельное спасибо [b]olegka7373[/b] за предоставление материала.

Внимание ! Раздача ведётся путём добавления новых серий
Внимание! Раздача ведётся путём добавления новых серий; при каждом добавлении создётся новый торрент. Чтобы начать докачку новой серии, пользователям необходимо сделать следующее:
(1) остановить скачивание,
(2) удалить старый торрент у себя из клиента (старые серии удалять не надо),
(3) скачать новый торрент и запустить его у себя в клиенте вместо старого, при этом указать клиенту путь в старую папку куда и должно происходить скачивание новых серий.
Ваш клиент при этом должен произвести хеширование (проверку) старой папки (если не производит сам - помогите ему сделать это), и будет докачивать только те серии которых у вас ещё нет. Старые серии при этом не удаляются, а продолжают раздаваться!
Eсли вы уже удалили старые серии, то предотвратить повторную закачку старых серий можно, отжав галочку в соответсвующих местах при запуске нового торрента. По возможности, желательно не удалять старые серии как можно дольше чтобы релизёр не столько продолжал раздавать старые серии, а смог сконцентрироваться на новых.

ВНИМАНИЕ! ТОРРЕНТ ПЕРЕЗАЛИТ! ДОБАВЛЕНА 4-ая СЕРИЯ!

Скриншоты
http://i63.fastpic.ru/thumb/2014/0510/e4/4e1f0d1a7d160a4a34b7aff0e5452ae4.jpeg http://i63.fastpic.ru/thumb/2014/0510/d0/a9e9dab31218152e4b18e840939487d0.jpeg http://i63.fastpic.ru/thumb/2014/0510/bc/68578c23364312c36596e9f810f4fdbc.jpeg http://i63.fastpic.ru/thumb/2014/0510/a6/d8fa2018cb06a08b66810edc46563aa6.jpeg

http://i17.fastpic.ru/big/2011/0302/93/84d6588c7f6e1cc66b53d3103e74fa93.gif[/img][img]http://s60.radikal.ru/i170/1007/6a/664e8d89abdf.gif
Похожие файлы
Загрузка / Обновление
КатегорияСериалы RSS лента
Просмотров198 раз (a)
Взят0 раз (a)
Файлы4
Размер16.70 GB (17,932,422,300 байт)
Добавлен
РаздалViKa  (Искать торренты)
Участники
Участники - Загрузка / Обновление
Просматривают Просматривают Загрузка...

-†- ¿? -†-
« Предыдущая - † Страница † - Следующая »

:: Список Комментариев
Нет комментариев.

 Нет комментариев
Вам запрещенно редактировать, создать или удалять комментарии.
shpv© 2007-2014
Страничка сформирована за 0.828 секунд.
Яндекс.Метрика Rambler's Top100