скачать торрент трекер Friends
 
 Главная  •  Торренты  •  Новые релизы  •  Форум  •   •  Персоны кино  •  Правила  •  ЧаВо

Язык интерфейса
Язык интерфейса:


Привет, Гость
[15] из [15]
Введите Логин:
Введите Пароль:
Регистрация
Восстановить Пароль

Линки
АнекдотыБанкоматВсе теги / меткиДополнительные услугиТехподдержка

Главное Меню
 Главная Торренты Релизы за сегодня Персоны кино Запросы / Предложения (3) Правила ЧаВо Проверка BB кодов Топ 10 Архив новостей Прошлые опросы Форматы файлов Группы Последние комментарии Техподдержка

:: Детали раздачи
Торрент раздача является мультитрекерной — учтите, количество раздающих не будет совпадать с количеством участников на сайте (скачивание на клиентской стороне зависит от настроек uTorrent клиент программы, настройки -> Включить DHT, Обмен пирами и Поиск лок-х пиров).
Если висит надпись, пиры по нулям - не бойтесь, возможность скачать повторно торрент раздачу - есть. Попробуйте, в случае отказа - прокоментируйте или нажмите на "Позвать скачавших".

Ликвидация / Серии: 1-14 из 14 (Сергей Урсуляк)

Скачать
Магнет
ПомощьКак скачать раздачу
Поделиться
Теги / Меткибоевик, триллер, рэтро-детектив
Постер
ОписаниеГод выпуска: 2007
Производство: Студия «Дед Мороз» по заказу ПЦ «Централ Партнершип»
Жанр: Боевик, Триллер, Рэтро-Детектив
Продолжительность: 14 x ~ 00:46:00
Субтитры: Отсутствуют

Режиссёр: Сергей Урсуляк

В ролях: Владимир Машков, Михаил Пореченков, Владимир Меньшов, Сергей Маковецкий, Андрей Краско, Светлана Крючкова, Федор Добронравов, Виктор Смирнов, Александр Голубев, Александр Семчев, Максим Дрозд, Олег Басилашвили, Вячеслав Ильин, Игорь Арташонов, Артем Осипов, Виктор Сарайкин, Диана Малая, Константин Лавроненко, Ксения Раппопорт, Полина Агуреева, Виктор Бунаков, Кирилл Кяро, Владимир Ровинский, Павел Ворожцов, Евгений Куршинский, Беата Маковская, Сергей Рубеко, Светлана Зубченко, Сергей Угрюмов, Лика Нифонтова, Виктор Супрун

Описание: Послевоенная Одесса, разгул преступности. В городе орудует банда бывших диверсантов во главе с загадочным Академиком, которого не знают даже свои. Бандиты грабят военные склады и пытаются переправить продовольствие, обмундирование и оружие бандеровцам. В это время недовольный Жуковым Сталин назначает его командующим Одесским округом. Маршал всеми силами пытается навести в городе порядок. На борьбу с бандитами посланы все силы, особенно старается начальник уголовного розыска Давид Гоцман.

Доп. информация: http://rating.kinopoisk.ru/378244.gif http://kinoafisha.ru/ratingi1048097.png

Все раздачи сериала: Все раздачи сериала
Сэмпл: http://multi-up.com/972931

Качество: DVDRip
Формат: AVI
Видео кодек: XviD
Аудио кодек: AC3
Видео: XVID, 720x432 (1,667), 25,000 кадров/сек, 1742 Кбит/сек, 0.224 bit/pixel
Аудио: AC-3, 48,0 КГц, 448 Кбит/сек (6 каналов)

Сторонней рекламы нет!

MI
Формат : AVI
Формат/Информация : Audio Video Interleave
Размер файла : 725 Мбайт
Продолжительность : 46 м.
Общий поток : 2200 Кбит/сек
Программа кодирования : VirtualDubModRus 1.5.10.2 (build 2542/release)
Библиотека кодирования : VirtualDubMod build 2542/release

Видео
Идентификатор : 0
Формат : MPEG-4 Visual
Профиль формата : Advanced Simple@L5
Параметр BVOP формата : 1
Параметр QPel формата : Нет
Параметр GMC формата : Без точки перехода
Параметр матрицы формата : Выборочная
Идентификатор кодека : XVID
Идентификатор кодека/Подсказка : XviD
Продолжительность : 46 м.
Битрейт : 1742 Кбит/сек
Ширина : 720 пикселей
Высота : 432 пикселя
Соотношение сторон : 1,667
Частота кадров : 25,000 кадров/сек
Цветовое пространство : YUV
Субдискретизация насыщенности : 4:2:0
Битовая глубина : 8 бит
Тип развёртки : Прогрессивная
Метод сжатия : С потерями
Бит/(Пиксели*Кадры) : 0.224
Размер потока : 574 Мбайт (79%)
Библиотека кодирования : XviD 73

Аудио
Идентификатор : 1
Формат : AC-3
Формат/Информация : Audio Coding 3
Расширение режима : CM (complete main)
Параметр Endianness формата : Big
Идентификатор кодека : 2000
Продолжительность : 46 м.
Вид битрейта : Постоянный
Битрейт : 448 Кбит/сек
Каналы : 6 каналов
Расположение каналов : Front: L C R, Side: L R, LFE
Частота : 48,0 КГц
Битовая глубина : 16 бит
Метод сжатия : С потерями
Размер потока : 148 Мбайт (20%)
Выравнивание : Разделение по промежуткам
Продолжительность промежутка : 40 мс. (1,00 видеокадр)
Время предзагрузки промежутка : 500 мс.


Скриншоты
http://i62.fastpic.ru/thumb/2014/0510/21/506413fa53e607a10472e0f23cdd2921.jpeg http://i64.fastpic.ru/thumb/2014/0510/7e/fd3370d4c7bb69597b82297c8a222f7e.jpeg http://i62.fastpic.ru/thumb/2014/0510/43/a8a998d54f4800136890386eac3e0943.jpeg http://i64.fastpic.ru/thumb/2014/0510/6b/3c5473103bc5d1302a8a7f1174ef7d6b.jpeg http://i62.fastpic.ru/thumb/2014/0510/f7/1a11665861ca07785a56633623e6b8f7.jpeg
Похожие файлы
Загрузка / Обновление
КатегорияСериалы RSS лента
Просмотров155 раз (a)
Взят5 раз (a)
Файлы14
Размер9.72 GB (10,433,433,600 байт)
Добавлен
РаздалViKa  (Искать торренты)
Участники
Участники - Загрузка / Обновление
Просматривают Просматривают Загрузка...

-†- ¿? -†-
« Предыдущая - † Страница † - Следующая »

:: Список Комментариев
Нет комментариев.

 Нет комментариев
Вам запрещенно редактировать, создать или удалять комментарии.
shpv© 2007-2014
Страничка сформирована за 0.064 секунд.
Яндекс.Метрика Rambler's Top100