скачать торрент трекер Friends
 
 Главная  •  Торренты  •  Новые релизы  •  Форум  •   •  Персоны кино  •  Правила  •  ЧаВо

Язык интерфейса
Язык интерфейса:


Привет, Гость
[15] из [15]
Введите Логин:
Введите Пароль:
Регистрация
Восстановить Пароль

Линки
АнекдотыБанкоматВсе теги / меткиДополнительные услугиТехподдержка

Главное Меню
 Главная Торренты Релизы за сегодня Персоны кино Запросы / Предложения (3) Правила ЧаВо Проверка BB кодов Топ 10 Архив новостей Прошлые опросы Форматы файлов Группы Последние комментарии Техподдержка

:: Детали раздачи
Торрент раздача является мультитрекерной — учтите, количество раздающих не будет совпадать с количеством участников на сайте (скачивание на клиентской стороне зависит от настроек uTorrent клиент программы, настройки -> Включить DHT, Обмен пирами и Поиск лок-х пиров).
Если висит надпись, пиры по нулям - не бойтесь, возможность скачать повторно торрент раздачу - есть. Попробуйте, в случае отказа - прокоментируйте или нажмите на "Позвать скачавших".

Второе дыхание / Серии: 1-8 из 8 (Сергей Пикалов)

Скачать
Магнет
ПомощьКак скачать раздачу
Поделиться
Теги / Меткимелодрама
Постер
ОписаниеГод выпуска: 2013
Производство: кинокомпания "RUmedia"
Жанр: Мелодрама
Продолжительность: ~0:50:00 серия
Субтитры: нет

Режиссёр: Сергей Пикалов

В ролях: Виктория Толстоганова, Марат Башаров, Егор Бероев, Евгения Серебренникова, Геннадий Дурнайкин, Ксения Суркова, Александр Петров (IX), Артем Фадеев, Марианна Шульц, Виктория Садовская-Чилап, Ирина Лосева, Егор Рыбаков, Денис Ясик, Сергей Греков, Галина Польских, Дмитрий Фрид, Эльвира Волошина, Андрей Бутин, Елена Лотова, Юрий Лопарёв, Виталий Филипповых, Сергей Шолох, Иван Замотаев, Виктор Цекало, Вячеслав Чернышов, Алексей Артамонов, Валентин Цзин, Николай Пивненко, Екатерина Василенко, Олег Зима, Ульяна Урванцева, Юлия Рувинская, Александр Пудов, Андрюс Паулавичюс, Вячеслав Ковалёв, Дарья Михайличенко, Наталья Чернявская, Александр Серов-Останкинский

Описание: В 2012 году правительство России увеличивает субсидии на развитие НАНОтехнологий. В семье Шевелевых, бывших работников НИИ, физиков по образованию, праздник. Завтра Игорь Шевелев выходит на работу в специальный отдел. Супругам по сорок лет, они вместе учились в университете, затем вместе еще с советских времен работали в НИИ, у них есть дочь-старшеклассница – Оксана и шестилетний сын Гоша.

Супруги едут на банкет, посвященный открытию нанолаборатории. Игорь напивается и в состоянии алкогольного опьянения сбивает сотрудника ГИБДД. Мария берет вину на себя – Игорь получил хорошую работу, а это реальный шанс для семьи Шевелевых вырваться из нищеты и обеспечить будущее детей. Мария получает полтора года.

Из колонии-поселения Мария выходит через год. Игорь работает у Сергеева (директора наноцентра), хорошо зарабатывает и любит другую женщину – Жанну, секретаршу Сергеева. Мария не может устроиться на работу по своей специальности, физика с судимостью нигде не берут, тогда Мария устраивается работать в больницу – простой санитаркой...

Все раздачи сериала: Второе дыхание

http://i29.fastpic.ru/big/2011/1030/ea/b1cf2ef64e49d1b69670beab9a74f7ea.png

Качество: HDTV 1080i
Формат: TS
Видео кодек: H.264
Аудио кодек: AC-3
Видео: MPEG4 Video (H264) 1920x1080, ~ 8150 kbps, 25.00fps 0.157 bit/pixel
Аудио: AC-3, 6 канала, 48,0 КГц, ~384 kbps

Сторонней рекламы нет!

MediaInfo


ОбщееИдентификатор : 1 (0x1)Полное имя : F:\Второе дыхание HDTV 1080i\Второе дыхание 01_серия_HDTV_1080i.tsФормат : MPEG-TSРазмер файла : 3,22 ГбайтПродолжительность : 51 м.Общий поток : 8981 Кбит/сек

ВидеоИдентификатор : 5481 (0x1569)Идентификатор меню : 1 (0x1)Формат : AVCФормат/Информация : Advanced Video CodecПрофиль формата : High@L4.0Параметр CABAC формата : ДаПараметр ReFrames формата : 3 кадраПараметры GOP формата : M=1, N=12Идентификатор кодека : 27Продолжительность : 51 м.Битрейт : 8150 Кбит/секШирина : 1920 пикс.Высота : 1080 пикс.Соотношение сторон : 16:9Частота кадров : 25,000 кадр/секСтандарт вещания : ComponentЦветовое пространство : YUVПодвыборка цветности : 4:2:0Битовая глубина : 8 битТип развёртки : ЧересстрочнаяПорядок развёртки : Верхнее поле первоеБит/(Пиксели*Кадры) : 0.157Размер потока : 2,92 Гбайт (91%)Основные цвета : BT.709-5, BT.1361, IEC 61966-2-4, SMPTE RP177Характеристики трансфера : BT.709-5, BT.1361Коэффициенты матрицы : BT.709-5, BT.1361, IEC 61966-2-4 709, SMPTE RP177

АудиоИдентификатор : 5485 (0x156D)Идентификатор меню : 1 (0x1)Формат : AC-3Формат/Информация : Audio Coding 3Расширение режима : CM (complete main)Идентификатор кодека : 6Продолжительность : 51 м.Вид битрейта : ПостоянныйБитрейт : 384 Кбит/секКаналы : 6 каналовРасположение каналов : Front: L C R, Side: L R, LFEЧастота : 48,0 КГцБитовая глубина : 16 битМетод сжатия : С потерямиРазмер потока : 141 Мбайт (4%)Язык : Russian


Раздача группы: http://static.rutracker.org/ranks/rg_humor.gif

Отдельное спасибо [b]olegka7373[/b] за предоставление материала.

Внимание ! Раздача ведётся путём добавления новых серий
Внимание! Раздача ведётся путём добавления новых серий; при каждом добавлении создётся новый торрент. Чтобы начать докачку новой серии, пользователям необходимо сделать следующее:
(1) остановить скачивание,
(2) удалить старый торрент у себя из клиента (старые серии удалять не надо),
(3) скачать новый торрент и запустить его у себя в клиенте вместо старого, при этом указать клиенту путь в старую папку куда и должно происходить скачивание новых серий.
Ваш клиент при этом должен произвести хеширование (проверку) старой папки (если не производит сам - помогите ему сделать это), и будет докачивать только те серии которых у вас ещё нет. Старые серии при этом не удаляются, а продолжают раздаваться!
Eсли вы уже удалили старые серии, то предотвратить повторную закачку старых серий можно, отжав галочку в соответсвующих местах при запуске нового торрента. По возможности, желательно не удалять старые серии как можно дольше чтобы релизёр не столько продолжал раздавать старые серии, а смог сконцентрироваться на новых.

ВНИМАНИЕ! ТОРРЕНТ ПЕРЕЗАЛИТ! ДОБАВЛЕНА 7-ая - 8-ая СЕРИИ!

Скриншоты
http://s003.radikal.ru/i202/1405/9a/11ef0ed6e465t.jpg http://s58.radikal.ru/i162/1405/32/99c133a5ff75t.jpg http://s018.radikal.ru/i515/1405/d8/29d887b32b59t.jpg http://s004.radikal.ru/i207/1405/fd/489fc1e0e441t.jpg

http://i17.fastpic.ru/big/2011/0302/93/84d6588c7f6e1cc66b53d3103e74fa93.gif[/img][img]http://s60.radikal.ru/i170/1007/6a/664e8d89abdf.gif
Скриншоты
Похожие файлы
Загрузка / Обновление
КатегорияСериалы RSS лента
Просмотров126 раз (a)
Взят1 раз (a)
Файлы8
Размер26.85 GB (28,828,472,532 байт)
Добавлен
РаздалViKa  (Искать торренты)
Участники
Участники - Загрузка / Обновление
Просматривают Просматривают Загрузка...

-†- ¿? -†-
« Предыдущая - † Страница † - Следующая »

:: Список Комментариев
Нет комментариев.

 Нет комментариев
Вам запрещенно редактировать, создать или удалять комментарии.
shpv© 2007-2014
Страничка сформирована за 0.155 секунд.
Яндекс.Метрика Rambler's Top100