скачать торрент трекер Friends
 
 Главная  •  Торренты  •  Новые релизы  •  Форум  •   •  Персоны кино  •  Правила  •  ЧаВо

Язык интерфейса
Язык интерфейса:


Привет, Гость
[15] из [15]
Введите Логин:
Введите Пароль:
Регистрация
Восстановить Пароль

Линки
АнекдотыБанкоматВсе теги / меткиДополнительные услугиТехподдержка

Главное Меню
 Главная Торренты Релизы за сегодня Персоны кино Запросы / Предложения (3) Правила ЧаВо Проверка BB кодов Топ 10 Архив новостей Прошлые опросы Форматы файлов Группы Последние комментарии Техподдержка

:: Детали раздачи
Торрент раздача является мультитрекерной — учтите, количество раздающих не будет совпадать с количеством участников на сайте (скачивание на клиентской стороне зависит от настроек uTorrent клиент программы, настройки -> Включить DHT, Обмен пирами и Поиск лок-х пиров).
Если висит надпись, пиры по нулям - не бойтесь, возможность скачать повторно торрент раздачу - есть. Попробуйте, в случае отказа - прокоментируйте или нажмите на "Позвать скачавших".

Надежда / Часть 1-2 из 2, Серии: 1-4 из 4 (Артем Насыбулин)

Скачать
Магнет
ПомощьКак скачать раздачу
Поделиться
Теги / Меткимелодрама
Постер
ОписаниеГод выпуска: 2014
Производство: кинокомпания «Русское»
Жанр: Мелодрама
Продолжительность: 00:46:00 (2 части: по 1 ч 30 мин)
Субтитры: Нет

Режиссёр: Артем Насыбулин

В ролях: Евгения Нохрина, Татьяна Косач-Брындина, Анастасия Сорокина, Кирилл Продолятченко, Матвей Зубалевич, Сергей Горобченко, Сергей Жарков, Ольга Науменко, Екатерина Андрейченко, Диана Енакаева

Описание: Надя, простая девушка из маленького городка, провожает жениха Алексея на военную службу по контракту. Героиня тщетно пытается отговорить любимого от опасной работы. Однако упрямый парень не хочет жить в бедности и, вопреки уговорам, уезжает.
Но женское сердце болело неспроста. Вскоре Надя получает страшное письмо: ее жених пропал без вести..





Доп. информация: Реклама отсутствует!





Релиз группы:: http://static.rutracker.org/pic/rgrs/logo.png





Все раздачи сериала: http://rutracker.org/forum/tracker.php?f=9&nm=Н...ртем%20Насыбулин
Сэмпл: https://cloud.mail.ru/public/5b1795af1901/%D0%9D%D0...Rip. by.simka.avi

Качество: SATRip
Формат: AVI
Видео кодек: XviD
Аудио кодек: MP3
Видео: 704x368, 25 fps, XviD, ~1444 kbps, 0.229 bit/pixel
Аудио: 48 kHz, MPEG Layer 3, 2 ch, 192 kbps

MI
Общее
Полное имя : Y:\Сериалы 2014\Надежда (2014)\Надежда.(01.seriya).2014.XviD.SATRip.by.simka.avi
Формат : AVI
Формат/Информация : Audio Video Interleave
Размер файла : 510 Мбайт
Продолжительность : 43 м.
Общий поток : 1645 Кбит/сек
Программа кодирования : VirtualDubModRus 1.5.10.2 (build 2542/release)
Библиотека кодирования : VirtualDubMod build 2542/release

Видео
Идентификатор : 0
Формат : MPEG-4 Visual
Профиль формата : Advanced Simple@L5
Параметр BVOP формата : 1
Параметр QPel формата : Нет
Параметр GMC формата : Без точки перехода
Параметр матрицы формата : Default (MPEG)
Идентификатор кодека : XVID
Идентификатор кодека/Подсказка : XviD
Продолжительность : 43 м.
Битрейт : 1444 Кбит/сек
Ширина : 704 пикселя
Высота : 368 пикселей
Соотношение сторон : 1,913
Частота кадров : 25,000 кадров/сек
Цветовое пространство : YUV
Субдискретизация насыщенности : 4:2:0
Битовая глубина : 8 бит
Тип развёртки : Прогрессивная
Метод сжатия : С потерями
Бит/(Пиксели*Кадры) : 0.223
Размер потока : 448 Мбайт (88%)
Библиотека кодирования : XviD 1.2.1 (UTC 2008-12-04)

Аудио
Идентификатор : 1
Формат : MPEG Audio
Версия формата : Version 1
Профиль формата : Layer 3
Режим : Joint stereo
Расширение режима : MS Stereo
Идентификатор кодека : 55
Идентификатор кодека/Подсказка : MP3
Продолжительность : 43 м.
Вид битрейта : Постоянный
Битрейт : 192 Кбит/сек
Каналы : 2 канала
Частота : 48,0 КГц
Метод сжатия : С потерями
Размер потока : 59,5 Мбайт (12%)
Выравнивание : Соединение по промежуткам
Продолжительность промежутка : 40 мс. (1,00 видеокадр)
Время предзагрузки промежутка : 504 мс.
Библиотека кодирования : LAME3.99r
Настройки программы : -m j -V 4 -q 2 -lowpass 18.6 -b 192


Скриншоты
http://firepic.org/?v=5.2014-05-10_91psdj8jp121.png
http://firepic.org/?v=5.2014-05-10_g17dglil4fwq.png
http://firepic.org/?v=5.2014-05-10_ek8d8nh6dxoh.png
http://firepic.org/?v=5.2014-05-10_8lqmcidj90me.png
http://firepic.org/?v=5.2014-05-10_kvqe1cv5ns8l.png
http://firepic.org/?v=5.2014-05-10_7fha3vhz7yc0.png
http://firepic.org/?v=5.2014-05-10_7fi6evapgqu8.png
http://firepic.org/?v=5.2014-05-10_tf27xziu6pux.png
http://firepic.org/?v=5.2014-05-10_a3n8rp7nvfj1.png
http://firepic.org/?v=5.2014-05-10_1jg715j6vgtl.png


-------------

Внимание! Раздача ведётся путём добавления новых выпусков
При каждом добавлении создаётся новый торрент. Чтобы начать докачку нового выпуска, пользователям необходимо сделать следующее:
П остановить скачивание;
П удалить старый торрент у себя из клиента (старые выпуски удалять не надо);
П скачать новый торрент и запустить его у себя в клиенте вместо старого, при этом указать клиенту путь в старую папку куда и должно происходить скачивание новых выпусков;
П ваш клиент при запуске должен произвести хеширование (проверку) старой папки (если не производит сам - помогите ему сделать это), и будет докачивать только те выпуски, которых у вас ещё нет. Старые выпуски при этом не удаляются, а продолжают раздаваться!, Конец фильма!, Продолжения в понедельник если не доберется ПО http://static.rutracker.org/smiles/icon_biggrin.gif

П Eсли вы уже удалили старые выпуски, то предотвратить повторную закачку старых выпусков можно, отжав галочку в соответсвующих местах при запуске нового торрента.

Добавлена 2-я часть
Похожие файлы
Загрузка / Обновление
КатегорияСериалы RSS лента
Просмотров88 раз (a)
Взят0 раз (a)
Файлы4
Размер2.07 GB (2,219,667,456 байт)
Добавлен
РаздалViKa  (Искать торренты)
Участники
Участники - Загрузка / Обновление
Просматривают Просматривают Загрузка...

-†- ¿? -†-
« Предыдущая - † Страница † - Следующая »

:: Список Комментариев
Нет комментариев.

 Нет комментариев
Вам запрещенно редактировать, создать или удалять комментарии.
shpv© 2007-2014
Страничка сформирована за 1.201 секунд.
Яндекс.Метрика Rambler's Top100