скачать торрент трекер Friends
 
 Главная  •  Торренты  •  Новые релизы  •  Форум  •   •  Персоны кино  •  Правила  •  ЧаВо

Язык интерфейса
Язык интерфейса:


Привет, Гость
[15] из [15]
Введите Логин:
Введите Пароль:
Регистрация
Восстановить Пароль

Линки
АнекдотыБанкоматВсе теги / меткиДополнительные услугиТехподдержка

Главное Меню
 Главная Торренты Релизы за сегодня Персоны кино Запросы / Предложения (3) Правила ЧаВо Проверка BB кодов Топ 10 Архив новостей Прошлые опросы Форматы файлов Группы Последние комментарии Техподдержка

:: Детали раздачи
Торрент раздача является мультитрекерной — учтите, количество раздающих не будет совпадать с количеством участников на сайте (скачивание на клиентской стороне зависит от настроек uTorrent клиент программы, настройки -> Включить DHT, Обмен пирами и Поиск лок-х пиров).
Если висит надпись, пиры по нулям - не бойтесь, возможность скачать повторно торрент раздачу - есть. Попробуйте, в случае отказа - прокоментируйте или нажмите на "Позвать скачавших".

Телохранитель-2 / Сезон: 2 / Серии: 1-12 из 12 (Павел Мальков, Виктория Зуева)

Скачать
Магнет
ПомощьКак скачать раздачу
Поделиться
Теги / Меткидетектив
Постер
ОписаниеГод выпуска: 2009
Производство: ООО "Центр кинопроизводства", ООО "Форвард-Фильм"
Жанр: Детектив
Продолжительность: ~0:45:00 серия
Субтитры: украинские вшитые

Режиссёр: Павел Мальков, Виктория Зуева

В ролях: Эдуард Трухменев, Яна Львова, Юрий Цурило, Олег Кныш, Олег Зима, Марина Коняшкина, Андрей Егоров, Борис Романов, Андрей Каверин, Валерий Кудашкин, Дмитрий Мазуров, Всеволод Болдин, Сергей Чудаков, Александр Хошабаев

Описание: Продолжение остросюжетного детектива "Телохранитель".
Погоня, полное отсутствие видимости, скользкая дорога, взрывы, разминирование бомбы, спасение в последнюю секунду - в таких условиях работает "Группа-Р", агентство профессиональных телохранителей. Им по силам любое дело!
Охранники самоотверженно борются с киллepами paзныx мастей, бaндитами вcex звaний и иx xoзяeвaми, oтнocящимиcя, кaк пpaвилo, к ближнeмy кpyгy клиeнтoв агентства. Они закрывают от пуль людей, доверивших им свою безопасность, рискуя собственной жизнью.
Смотрите три новых фильма - "Сбитый летчик" , "Эх, Семенова!" и "Охота на свидетеля"

Доп. информация:
Сериал состоит из трёх фильмов по 4 серии в каждом:
Фильм первый: «Сбитый летчик» (серии 1—4)
Фильм второй: «Эх, Семенова!» (серии 5—8)
Фильм третий: «Охота на свидетеля». (серии 9—12)


Все раздачи сериала: Телохранитель-2

http://i29.fastpic.ru/big/2011/1030/ea/b1cf2ef64e49d1b69670beab9a74f7ea.png

Качество: DVB
Формат: MPEG
Видео кодек: MPEG2
Аудио кодек: MPEG1
Видео: MPEG2 Video 768х576 @ 720x576 (4:3) 25.00fps ~4800 Kbps (0.463 bit/pixel)
Аудио: MPEG Audio 48000Hz 2 channels 256 Кбит/сек

Сторонней рекламы нет!

MediaInfo


ОбщееПолное имя : H:\ФИЛЬМЫ\Телохранитель-2 DVB\Телохранитель-2 01_серия_DVB_by_Серый1779.mpgФормат : MPEG-PSРазмер файла : 1,52 ГбайтПродолжительность : 42 м.Режим общего битрейта : ПеременныйОбщий поток : 5120 Кбит/сек

ВидеоИдентификатор : 224 (0xE0)Формат : MPEG VideoВерсия формата : Version 2Профиль формата : Main@MainПараметр BVOP формата : ДаПараметр матрицы формата : ВыборочнаяПараметр GOP формата : M=3, N=24Продолжительность : 42 м.Вид битрейта : ПеременныйБитрейт : 4800 Кбит/секШирина : 720 пикселейВысота : 576 пикселейСоотношение сторон : 4:3Частота кадров : 25,000 кадров/секСтандарт вещания : PALЦветовое пространство : YUVСубдискретизация насыщенности : 4:2:0Битовая глубина : 8 битТип развёртки : ЧересстрочнаяПорядок развёртки : Верхнее поле первоеМетод сжатия : С потерямиБит/(Пиксели*Кадры) : 0.463Размер потока : 1,42 Гбайт (93%)

АудиоИдентификатор : 192 (0xC0)Формат : MPEG AudioВерсия формата : Version 1Профиль формата : Layer 2Продолжительность : 42 м.Вид битрейта : ПостоянныйБитрейт : 256 Кбит/секКаналы : 2 каналаЧастота : 48,0 КГцМетод сжатия : С потерямиРазмер потока : 77,9 Мбайт (5%)


Запись и монтаж: http://i27.fastpic.ru/big/2012/0109/f4/e3cb3b5ce4a312896095daceb5e8bcf4.gif

Раздача группы: http://static.rutracker.org/pic/rgrs/logo.png

Внимание ! Раздача ведётся путём добавления новых серий
Внимание! Раздача ведётся путём добавления новых серий; при каждом добавлении создётся новый торрент. Чтобы начать докачку новой серии, пользователям необходимо сделать следующее:
(1) остановить скачивание,
(2) удалить старый торрент у себя из клиента (старые серии удалять не надо),
(3) скачать новый торрент и запустить его у себя в клиенте вместо старого, при этом указать клиенту путь в старую папку куда и должно происходить скачивание новых серий.
Ваш клиент при этом должен произвести хеширование (проверку) старой папки (если не производит сам - помогите ему сделать это), и будет докачивать только те серии которых у вас ещё нет. Старые серии при этом не удаляются, а продолжают раздаваться!
Eсли вы уже удалили старые серии, то предотвратить повторную закачку старых серий можно, отжав галочку в соответсвующих местах при запуске нового торрента. По возможности, желательно не удалять старые серии как можно дольше чтобы релизёр не столько продолжал раздавать старые серии, а смог сконцентрироваться на новых.

ВНИМАНИЕ! ТОРРЕНТ ПЕРЕЗАЛИТ! ДОБАВЛЕНА 12-ая СЕРИИ!

Скриншоты
http://i56.fastpic.ru/thumb/2014/0429/0c/eb41804c680a0a9da569b249e1c62c0c.jpeg http://i56.fastpic.ru/thumb/2014/0429/5f/0d6c48a7c79c5d36f6c56b20cc98055f.jpeg http://i56.fastpic.ru/thumb/2014/0429/1d/73e81618a182c6e5e2f23cb709efcf1d.jpeg http://i56.fastpic.ru/thumb/2014/0429/ed/4c58005ee4dcb6f4dcb6d953a15f2eed.jpeg http://i56.fastpic.ru/thumb/2014/0429/0a/85306de0c5ccec2cd4304f731137a40a.jpeg http://i56.fastpic.ru/thumb/2014/0429/e8/b25a6aa31cbaa425a7b4c9ed226784e8.jpeg

http://i17.fastpic.ru/big/2011/0302/93/84d6588c7f6e1cc66b53d3103e74fa93.gif[/img][img]http://s60.radikal.ru/i170/1007/6a/664e8d89abdf.gif
Похожие файлы
Загрузка / Обновление
КатегорияСериалы RSS лента
Просмотров117 раз (a)
Взят0 раз (a)
Файлы12
Размер18.42 GB (19,783,364,608 байт)
Добавлен
РаздалViKa  (Искать торренты)
Участники
Участники - Загрузка / Обновление
Просматривают Просматривают Загрузка...

-†- ¿? -†-
« Предыдущая - † Страница † - Следующая »

:: Список Комментариев
Нет комментариев.

 Нет комментариев
Вам запрещенно редактировать, создать или удалять комментарии.
shpv© 2007-2014
Страничка сформирована за 0.232 секунд.
Яндекс.Метрика Rambler's Top100