скачать торрент трекер Friends
 
 Главная  •  Торренты  •  Новые релизы  •  Форум  •   •  Персоны кино  •  Правила  •  ЧаВо

Язык интерфейса
Язык интерфейса:


Привет, Гость
[15] из [15]
Введите Логин:
Введите Пароль:
Регистрация
Восстановить Пароль

Линки
АнекдотыБанкоматВсе теги / меткиДополнительные услугиТехподдержка

Главное Меню
 Главная Торренты Релизы за сегодня Персоны кино Запросы / Предложения (3) Правила ЧаВо Проверка BB кодов Топ 10 Архив новостей Прошлые опросы Форматы файлов Группы Последние комментарии Техподдержка

:: Детали раздачи
Торрент раздача является мультитрекерной — учтите, количество раздающих не будет совпадать с количеством участников на сайте (скачивание на клиентской стороне зависит от настроек uTorrent клиент программы, настройки -> Включить DHT, Обмен пирами и Поиск лок-х пиров).
Если висит надпись, пиры по нулям - не бойтесь, возможность скачать повторно торрент раздачу - есть. Попробуйте, в случае отказа - прокоментируйте или нажмите на "Позвать скачавших".

Ты заплатишь за все / Серии 1-4 из 4 (Дмитрий Сорокин)

Скачать
Магнет
ПомощьКак скачать раздачу
Поделиться
Теги / Меткимелодрама
Постер
ОписаниеВыпущено: Россия, ООО "Тесей Продакшн", КК "Мегафильм"
Жанр: мелодрама
Год выпуска: 2013
Продолжительность: 00:45:00
Субтитры: нет

Режиссер: Дмитрий Сорокин
В ролях: Алёна Ивченко, Яна Шивкова, Максим Радугин, Алексей Захаров, Ангелина Добророднова, Остап Токаренко, Елена Ветрова, Михаил Дорожкин, Игорь Филиппов, Евгений Кушпель, Владимир Румянцев, Олег Метелев, Хайдар Биктимиров

Описание: Дом Анны всегда был полной чашей: заботливый и обеспеченный муж, послушные дети. Одна беда – серьёзно больна сестра. После курса лечения девушка должна была пойти на поправку, но она внезапно умерла как раз из-за того препарата, с которым связывали надежду на выздоровление. Анна решает наказать виновных в гибели сестры и обращается в суд. «Фармацевт-убийца» арестован и умирает в тюрьме. Его жена, Наталья, теряет долгожданного первенца. С этого момента она решает отомстить тем, кто виноват в смерти ее мужа и ребенка. Как это решение отразится на семье Анны? И чем обернётся для самой мстительницы?

http://i26.fastpic.ru/big/2012/1007/c2/3d4ebe5afcc90878620a21afe0b7e2c2.png http://www.kinopoisk.ru/rating/803141.gif

Все раздачи сериала

Автор рипа / записи: fanatus
Исходник: Запись с телеканала РОССИЯ HD
Качество: HDTVRip 720p
Формат: MKV
Видео кодек: H.264
Аудио кодек: AC3

Видео: MPEG-4 AVC, 3309 kbps , 1280x720 (16:9), 25.000 fps, 0.144 bit/pixel
Аудио: AC3, 2 ch, 48 kHz, 192 kbps

MediaInfo
General
Unique ID : 197322356060810367528628485194465485914 (0x9472E746C273C0B78C84FEF28A55245A)
Complete name : E:\Ty_zaplatish_za_vse.(1-4.serii.iz.4).2013.x264.HDTVRip.720p.fanatus\1-2_serija.mkv
Format : Matroska
Format version : Version 2
File size : 2.34 GiB
Duration : 1h 35mn
Overall bit rate : 3 503 Kbps
Movie name : Ty zaplatish za vse (2013) - fanatus
Encoded date : UTC 2014-05-16 03:56:15
Writing application : mkvmerge v3.4.0 ('Rapunzel') сборка от May 15 2010 09:38:20
Writing library : libebml v0.8.0 + libmatroska v0.9.0

Video
ID : 1
Format : AVC
Format/Info : Advanced Video Codec
Format profile : High@L4.1
Format settings, CABAC : Yes
Format settings, ReFrames : 8 frames
Codec ID : V_MPEG4/ISO/AVC
Duration : 1h 35mn
Bit rate : 3 309 Kbps
Width : 1 280 pixels
Height : 720 pixels
Display aspect ratio : 16:9
Frame rate : 25.000 fps
Color space : YUV
Chroma subsampling : 4:2:0
Bit depth : 8 bits
Scan type : Progressive
Bits/(Pixel*Frame) : 0.144
Stream size : 2.17 GiB (93%)
Title : 1-2 serija
Writing library : x264 core 142 r2409 d6b4e63
Encoding settings : cabac=1 / ref=8 / deblock=1:-2:-2 / analyse=0x3:0x113 / me=umh / subme=10 / psy=1 / psy_rd=1.00:0.10 / mixed_ref=1 / me_range=32 / chroma_me=1 / trellis=2 / 8x8dct=1 / cqm=0 / deadzone=21,11 / fast_pskip=0 / chroma_qp_offset=-3 / threads=16 / lookahead_threads=2 / sliced_threads=0 / nr=0 / decimate=0 / interlaced=0 / bluray_compat=0 / constrained_intra=0 / bframes=8 / b_pyramid=2 / b_adapt=2 / b_bias=0 / direct=3 / weightb=1 / open_gop=0 / weightp=2 / keyint=250 / keyint_min=25 / scenecut=40 / intra_refresh=0 / rc=2pass / mbtree=0 / bitrate=3309 / ratetol=1.0 / qcomp=0.65 / qpmin=0 / qpmax=69 / qpstep=4 / cplxblur=20.0 / qblur=0.5 / ip_ratio=1.40 / pb_ratio=1.30 / aq=1:0.90
Language : Russian
Default : Yes
Forced : No

Audio
ID : 2
Format : AC-3
Format/Info : Audio Coding 3
Mode extension : CM (complete main)
Format settings, Endianness : Big
Codec ID : A_AC3
Duration : 1h 35mn
Bit rate mode : Constant
Bit rate : 192 Kbps
Channel(s) : 2 channels
Channel positions : Front: L R
Sampling rate : 48.0 KHz
Bit depth : 16 bits
Compression mode : Lossy
Stream size : 131 MiB (5%)
Language : Russian
Default : Yes
Forced : No


Скриншот c названием фильма
http://radikal.ru/F/s018.radikal.ru/i515/1405/47/db7c9538c900.png



Скриншоты
http://radikal.ru/F/s019.radikal.ru/i621/1405/04/568261ef290e.png
http://radikal.ru/F/s006.radikal.ru/i214/1405/cd/ba832e5411a7.png
http://radikal.ru/F/s020.radikal.ru/i717/1405/81/2920ef463679.png
http://radikal.ru/F/s018.radikal.ru/i515/1405/09/6157c91bb40e.png
http://radikal.ru/F/s57.radikal.ru/i158/1405/26/642759cbef72.png
http://radikal.ru/F/s020.radikal.ru/i711/1405/6a/e452b4de0c21.png
http://radikal.ru/F/s020.radikal.ru/i709/1405/1a/3d69ec603e36.png
http://radikal.ru/F/s005.radikal.ru/i212/1405/13/c126b99046bd.png
http://radikal.ru/F/s43.radikal.ru/i101/1405/f7/a06bf39ab44c.png
http://radikal.ru/F/s020.radikal.ru/i716/1405/2e/d29bc4610caa.png
Скриншоты
Похожие файлы
Загрузка / Обновление
КатегорияСериалы RSS лента
Просмотров99 раз (a)
Взят2 раз (a)
Файлы2
Размер4.35 GB (4,671,782,686 байт)
Добавлен
РаздалViKa  (Искать торренты)
Участники
Участники - Загрузка / Обновление
Просматривают Просматривают Загрузка...

-†- ¿? -†-
« Предыдущая - † Страница † - Следующая »

:: Список Комментариев
Нет комментариев.

 Нет комментариев
Вам запрещенно редактировать, создать или удалять комментарии.
shpv© 2007-2014
Страничка сформирована за 0.351 секунд.
Яндекс.Метрика Rambler's Top100