скачать торрент трекер Friends
 
 Главная  •  Торренты  •  Новые релизы  •  Форум  •   •  Персоны кино  •  Правила  •  ЧаВо

Язык интерфейса
Язык интерфейса:


Привет, Гость
[15] из [15]
Введите Логин:
Введите Пароль:
Регистрация
Восстановить Пароль

Линки
АнекдотыБанкоматВсе теги / меткиДополнительные услугиТехподдержка

Главное Меню
 Главная Торренты Релизы за сегодня Персоны кино Запросы / Предложения (3) Правила ЧаВо Проверка BB кодов Топ 10 Архив новостей Прошлые опросы Форматы файлов Группы Последние комментарии Техподдержка

:: Детали раздачи
Торрент раздача является мультитрекерной — учтите, количество раздающих не будет совпадать с количеством участников на сайте (скачивание на клиентской стороне зависит от настроек uTorrent клиент программы, настройки -> Включить DHT, Обмен пирами и Поиск лок-х пиров).
Если висит надпись, пиры по нулям - не бойтесь, возможность скачать повторно торрент раздачу - есть. Попробуйте, в случае отказа - прокоментируйте или нажмите на "Позвать скачавших".

ППС 2 (Патрульно-постовая служба 2) / Сезон: 2 / Серии: 1-11 из 32 ( Виктор Татарский, Андрей Иванов)

Скачать
Магнет
ПомощьКак скачать раздачу
Поделиться
Теги / Меткибоевик, криминал, детектив
Постер
ОписаниеГод выпуска: 2014
Производство: «Триикс Медиа» по заказу НТВ
Жанр: Боевик, криминал, детектив
Продолжительность: 00:48:00
Субтитры: нет

Режиссёр: Виктор Татарский, Андрей Иванов

В ролях: Борис Галкин, Андрей Кузнецов, Александр Мосолов, Роман Агеев, Александр Большаков, Полина Воробьёва, Игорь Вуколов, Ольга Калмыкова, Валерий Кухарешин, Валерий Ошомков, Екатерина Решетникова, Геннадий Свирь, Павел Харизанов, Антон Чернов, Степан Бекетов, Александр Глебов, Вадим Романов, Роман Павлушев, Игорь Головин, Эрик Кения, Марианна Коробейникова, Зоя Буряк, Александр Ронис, Арина Лыкова, Михаил Володин, Данила Калабин, Олег Алмазов, Сергей Малюгов, Дмитрий Поддубный, Александр Петров, Тимофей Будкевич, Борис Драгилев, Алексей Одинг, Денис Кириллов, Игорь Лепихин, Герасим Архипов

Описание: Экипаж Лукина, Сергеева и Дуброва, так же, как и в первом сезоне, работает «в поле» — в городе, где ежедневно происходят правонарушения разной степени опасности. Полицейские сталкиваются с бытовыми драками, убийствами, семейными разборками, с наркоманами и наркодилерами, квартирными ворами-домушниками, угонщиками машин, уличными хулиганами, пьяными, бомжами — в общем всем тем, что называется «изнанкой большого города». В коллективе появляется новое лицо — Константин Шансов — опер, работающий в отделе вместе со Слоновым и Мурашовым. Помимо мелких хулиганов и районных наркоторговцев у героев появляется серьёзный противник в лице бизнесмена Ильина, человека с криминальным прошлым.

Все раздачи сериала:ППС 2 (Патрульно-постовая служба 2)

http://i29.fastpic.ru/big/2011/1030/ea/b1cf2ef64e49d1b69670beab9a74f7ea.png

Качество: SATRip-AVC
Формат: MKV
Видео кодек: H.264
Аудио кодек: AAC
Видео: MPEG4 Video (H264) 720x400, ~ 1574 kbps, 25.00fps, 0.229 bit/pixel
Аудио: AAC, 2 канала, 48,0 КГц, ~192 kbps, VBR

Сторонней рекламы нет!

MI


ОбщееУникальный идентификатор : 184235526124962433866437700761138578312 (0x8A9A78BE9ADBC2589691ED64A07D4388)Полное имя : J:\ФИЛЬМЫ\ППС 2 SATRip AVC\ППС-2 01_серия_SATRip_AVC_by_Серый1779.mkvФормат : MatroskaРазмер файла : 549 МбайтПродолжительность : 43 м.Общий поток : 1769 Кбит/секДата кодирования : UTC 2014-05-16 23:20:02Программа кодирования : mkvmerge v6.1.0 ('Old Devil') built on Mar 4 2013 09:10:42Библиотека кодирования : libebml v1.3.0 + libmatroska v1.4.0

ВидеоИдентификатор : 1Формат : AVCФормат/Информация : Advanced Video CodecПрофиль формата : High@L3.1Параметр CABAC формата : ДаПараметр ReFrames формата : 9 кадровИдентификатор кодека : V_MPEG4/ISO/AVCПродолжительность : 43 м.Битрейт : 1542 Кбит/секШирина : 720 пикс.Высота : 400 пикс.Соотношение сторон : 16:9Частота кадров : 25,000 кадр/секЦветовое пространство : YUVПодвыборка цветности : 4:2:0Битовая глубина : 8 битТип развёртки : ПрогрессивнаяБит/(Пиксели*Кадры) : 0.214Размер потока : 479 Мбайт (87%)Библиотека кодирования : x264 core 130 r2273 b3065e6Настройки программы : cabac=1 / ref=9 / deblock=1:-3:-3 / analyse=0x3:0x133 / me=umh / subme=9 / psy=1 / psy_rd=1.00:0.14 / mixed_ref=1 / me_range=32 / chroma_me=1 / trellis=2 / 8x8dct=1 / cqm=0 / deadzone=21,11 / fast_pskip=0 / chroma_qp_offset=-3 / threads=6 / lookahead_threads=1 / sliced_threads=0 / nr=0 / decimate=1 / interlaced=0 / bluray_compat=0 / constrained_intra=0 / bframes=9 / b_pyramid=2 / b_adapt=2 / b_bias=0 / direct=1 / weightb=1 / open_gop=0 / weightp=2 / keyint=250 / keyint_min=25 / scenecut=40 / intra_refresh=0 / rc=crf / mbtree=0 / crf=17.0 / qcomp=0.60 / qpmin=0 / qpmax=69 / qpstep=4 / ip_ratio=1.40 / pb_ratio=1.30 / aq=2:1.00Основные цвета : BT.470-6 System B, BT.470-6 System G, BT.601-6 625, BT.1358 625, BT.1700 625 PAL, BT.1700 625 SECAMХарактеристики трансфера : BT.470-6 System B, BT.470-6 System GКоэффициенты матрицы : BT.470-6 System B, BT.470-6 System G, BT.601-6 625, BT.1358 625, BT.1700 625 PAL, BT.1700 625 SECAM, IEC 61966-2-4 601

АудиоИдентификатор : 2Формат : MPEG AudioВерсия формата : Version 1Профиль формата : Layer 2Идентификатор кодека : A_MPEG/L2Идентификатор кодека/Подсказка : MP2Продолжительность : 43 м.Вид битрейта : ПостоянныйБитрейт : 192 Кбит/секКаналы : 2 каналаЧастота : 48,0 КГцМетод сжатия : С потерямиРазмер потока : 59,6 Мбайт (11%)



h264 log


x264 [info]: frame I:578 Avg QP:15.54 size: 46291x264 [info]: frame P:18517 Avg QP:17.03 size: 16690x264 [info]: frame B:46023 Avg QP:19.59 size: 3846x264 [info]: consecutive B-frames: 7.1% 2.8% 16.6% 27.9% 22.1% 22.2% 1.0% 0.2% 0.1% 0.0%x264 [info]: mb I I16..4: 6.5% 73.5% 20.0%x264 [info]: mb P I16..4: 0.8% 10.2% 1.6% P16..4: 37.9% 25.6% 20.0% 1.1% 0.5% skip: 2.4%x264 [info]: mb B I16..4: 0.0% 0.6% 0.1% B16..8: 40.4% 11.6% 2.9% direct: 5.1% skip:39.2% L0:31.0% L1:44.0% BI:25.0%x264 [info]: 8x8 transform intra:79.6% inter:50.9%x264 [info]: coded y,uvDC,uvAC intra: 95.9% 85.7% 66.2% inter: 27.3% 22.8% 4.1%x264 [info]: i16 v,h,dc,p: 10% 11% 26% 53%x264 [info]: i8 v,h,dc,ddl,ddr,vr,hd,vl,hu: 15% 14% 6% 8% 11% 12% 11% 11% 12%x264 [info]: i4 v,h,dc,ddl,ddr,vr,hd,vl,hu: 15% 11% 3% 8% 14% 14% 13% 11% 11%x264 [info]: i8c dc,h,v,p: 36% 27% 22% 15%x264 [info]: Weighted P-Frames: Y:4.3% UV:2.0%x264 [info]: ref P L0: 57.2% 12.3% 16.3% 3.5% 3.5% 2.1% 2.2% 1.1% 1.4% 0.4% 0.0%x264 [info]: ref B L0: 89.0% 7.0% 1.6% 0.9% 0.6% 0.5% 0.3% 0.2%x264 [info]: ref B L1: 97.4% 2.6%x264 [info]: kb/s:1574.99

x264 [total]: encoded 65118 frames, 6.49 fps, 1574.99 kb/s


Рип: http://i27.fastpic.ru/big/2012/0109/f4/e3cb3b5ce4a312896095daceb5e8bcf4.gif

Раздача группы: http://savepic.su/3981179.png

Отдельное спасибо [b]wowa63[/b] за предоставление исходника.

Внимание ! Раздача ведётся путём добавления новых серий
Внимание! Раздача ведётся путём добавления новых серий; при каждом добавлении создётся новый торрент. Чтобы начать докачку новой серии, пользователям необходимо сделать следующее:
(1) остановить скачивание,
(2) удалить старый торрент у себя из клиента (старые серии удалять не надо),
(3) скачать новый торрент и запустить его у себя в клиенте вместо старого, при этом указать клиенту путь в старую папку куда и должно происходить скачивание новых серий.
Ваш клиент при этом должен произвести хеширование (проверку) старой папки (если не производит сам - помогите ему сделать это), и будет докачивать только те серии которых у вас ещё нет. Старые серии при этом не удаляются, а продолжают раздаваться!
Eсли вы уже удалили старые серии, то предотвратить повторную закачку старых серий можно, отжав галочку в соответсвующих местах при запуске нового торрента. По возможности, желательно не удалять старые серии как можно дольше чтобы релизёр не столько продолжал раздавать старые серии, а смог сконцентрироваться на новых.

ВНИМАНИЕ! ТОРРЕНТ ПЕРЕЗАЛИТ! ДОБАВЛЕНА 6-ая - 11-ая СЕРИИ!

Скриншоты
http://i63.fastpic.ru/thumb/2014/0517/31/bc72198bc21dd770e5586c73701c1d31.jpeg http://i63.fastpic.ru/thumb/2014/0517/e9/108b8ca9dbbce36470dec3165665ffe9.jpeg http://i63.fastpic.ru/thumb/2014/0517/1c/73f652ca7ec4998687d21a59ed9d231c.jpeg http://i63.fastpic.ru/thumb/2014/0517/ac/e592a97cf158c80bc0690ef03ad509ac.jpeg

http://i17.fastpic.ru/big/2011/0302/93/84d6588c7f6e1cc66b53d3103e74fa93.gif[/img][img]http://s60.radikal.ru/i170/1007/6a/664e8d89abdf.gif
Похожие файлы
Загрузка / Обновление
КатегорияСериалы RSS лента
Просмотров137 раз (a)
Взят0 раз (a)
Файлы11
Размер6.34 GB (6,810,873,772 байт)
Добавлен
РаздалViKa  (Искать торренты)
Участники
Участники - Загрузка / Обновление
Просматривают Просматривают Загрузка...

-†- ¿? -†-
« Предыдущая - † Страница † - Следующая »

:: Список Комментариев
Нет комментариев.

 Нет комментариев
Вам запрещенно редактировать, создать или удалять комментарии.
shpv© 2007-2014
Страничка сформирована за 0.089 секунд.
Яндекс.Метрика Rambler's Top100