скачать торрент трекер Friends
 
 Главная  •  Торренты  •  Новые релизы  •  Форум  •   •  Персоны кино  •  Правила  •  ЧаВо

Язык интерфейса
Язык интерфейса:


Привет, Гость
[15] из [15]
Введите Логин:
Введите Пароль:
Регистрация
Восстановить Пароль

Линки
АнекдотыБанкоматВсе теги / меткиДополнительные услугиТехподдержка

Главное Меню
 Главная Торренты Релизы за сегодня Персоны кино Запросы / Предложения (3) Правила ЧаВо Проверка BB кодов Топ 10 Архив новостей Прошлые опросы Форматы файлов Группы Последние комментарии Техподдержка

:: Детали раздачи
Торрент раздача является мультитрекерной — учтите, количество раздающих не будет совпадать с количеством участников на сайте (скачивание на клиентской стороне зависит от настроек uTorrent клиент программы, настройки -> Включить DHT, Обмен пирами и Поиск лок-х пиров).
Если висит надпись, пиры по нулям - не бойтесь, возможность скачать повторно торрент раздачу - есть. Попробуйте, в случае отказа - прокоментируйте или нажмите на "Позвать скачавших".

Память сердца / Серии: 1-4 из 4 (Артем Насыбулин)

Скачать
Магнет
ПомощьКак скачать раздачу
Поделиться
Теги / Меткимелодрама
Постер
ОписаниеГод выпуска: 2014
Производство: "М.Продакшн"
Жанр: мелодрама
Продолжительность: ~0:45:00 серия
Субтитры: нет

Режиссёр: Артем Насыбулин

В ролях: Елена Радевич, Иван Жвакин, Владимир Жеребцов, Алексей Барабаш, Сергей Юшкевич, Борис Каморзин, Татьяна Рудина, Алексей Тихонов, Юлия Ромашина, Андрей Лебедев

Описание: Внезапное горе рушит жизнь 17-летней девушки Саши: в собственном доме сгорает вся ее семья — родители и двухлетняя сестренка Даша. Выясняется, что Алексею — отцу Саши, угрожали бандиты, требовавшие продать за бесценок успешный бизнес главы семьи. Но неужели из-за бизнеса они пошли на такое зверское преступление и истребили всю семью, случайно оставив отсутствовавшую дома Сашу в живых?

Саша растеряна: оставшись без родных, без дома, без средств к существованию, она не может больше жить в родном Нижнедонске и находит единственный смысл в том, чтобы понять, что же произошло с ее семьей, и почему не найдены останки ее маленькой сестренки.

Доп. информация: Запись со спутника телеканал "Россия HD"
В раздаче 2 файла продолжительностью 01:29:52 + 01:29:45

Все раздачи сериала
Сэмпл: http://multi-up.com/974535

http://rating.kinopoisk.ru/838675.gif

Качество: HDTV 1080i
Формат: TS
Видео кодек: AVC/H.264
Аудио кодек: MP2
Видео: AVC/H.264, 1920x1080 (16:9), 7891(6559) Кбит/сек, 25.000 fps, 0.152(0,127) bit/pixe
Аудио: русский, MP2, 2ch, 48,0 КГц, 192 Кбит/сек

MediaInfo


MediaInfo 1 часть
Видео
Идентификатор : 306 (0x132)
Идентификатор меню : 1 (0x1)
Формат : AVC
Формат/Информация : Advanced Video Codec
Профиль формата : High@L4.0
Параметр CABAC формата : Да
Параметр ReFrames формата : 3 кадра
Параметр GOP формата : M=4, N=28
Идентификатор кодека : 27
Продолжительность : 1 ч. 29 м.
Битрейт : 7891 Кбит/сек
Ширина : 1920 пикселей
Высота : 1080 пикселей
Соотношение сторон : 16:9
Частота кадров : 25,000 кадров/сек
Стандарт вещания : Component
Цветовое пространство : YUV
Субдискретизация насыщенности : 4:2:0
Битовая глубина : 8 бит
Тип развёртки : Чересстрочная
Порядок развёртки : Верхнее поле первое
Бит/(Пиксели*Кадры) : 0.152
Размер потока : 4,95 Гбайт (93%)
Основные цвета : BT.709
Характеристики трансфера : BT.709
Коэффициенты матрицы : BT.709

Аудио
Идентификатор : 406 (0x196)
Идентификатор меню : 1 (0x1)
Формат : MPEG Audio
Версия формата : Version 1
Профиль формата : Layer 2
Идентификатор кодека : 3
Продолжительность : 1 ч. 29 м.
Вид битрейта : Постоянный
Битрейт : 192 Кбит/сек
Каналы : 2 канала
Частота : 48,0 КГц
Метод сжатия : С потерями
Размер потока : 123 Мбайт (2%)


MediaInfo 2 часть
Видео
Идентификатор : 306 (0x132)
Идентификатор меню : 1 (0x1)
Формат : AVC
Формат/Информация : Advanced Video Codec
Профиль формата : High@L4.0
Параметр CABAC формата : Да
Параметр ReFrames формата : 3 кадра
Идентификатор кодека : 27
Продолжительность : 1 ч. 29 м.
Битрейт : 6559 Кбит/сек
Ширина : 1920 пикселей
Высота : 1080 пикселей
Соотношение сторон : 16:9
Частота кадров : 25,000 кадров/сек
Стандарт вещания : Component
Цветовое пространство : YUV
Субдискретизация насыщенности : 4:2:0
Битовая глубина : 8 бит
Тип развёртки : Чересстрочная
Порядок развёртки : Верхнее поле первое
Бит/(Пиксели*Кадры) : 0.127
Размер потока : 4,11 Гбайт (92%)
Основные цвета : BT.709
Характеристики трансфера : BT.709
Коэффициенты матрицы : BT.709

Аудио
Идентификатор : 406 (0x196)
Идентификатор меню : 1 (0x1)
Формат : MPEG Audio
Версия формата : Version 1
Профиль формата : Layer 2
Идентификатор кодека : 3
Продолжительность : 1 ч. 29 м.
Вид битрейта : Постоянный
Битрейт : 192 Кбит/сек
Каналы : 2 канала
Частота : 48,0 КГц
Метод сжатия : С потерями
Размер потока : 123 Мбайт (3%)




Скриншот с названием фильма
http://i63.fastpic.ru/thumb/2014/0518/d3/_2b6a46ff2a0b9b9fad45b99097c50dd3.jpeg


Скриншоты
[img]http://i63.fastpic.ru/thumb/2014/0518/ac/_99bafe5599a3b9ad5b134d24100a4eac.jpeg[/img][img]http://i64.fastpic.ru/thumb/2014/0518/53/_3887d1c3413a62291af78a5c43146453.jpeg[/img][img]http://i61.fastpic.ru/thumb/2014/0518/e6/_65898f25921a45a2bcaa8c4ed682e2e6.jpeg[/img][img]http://i62.fastpic.ru/thumb/2014/0518/5c/_ef920daa2158a04a1aba7e93cf836b5c.jpeg[/img][img]http://i63.fastpic.ru/thumb/2014/0518/2c/_e447e2128fc7e5a91605055d6e0ced2c.jpeg[/img][img]http://i62.fastpic.ru/thumb/2014/0518/e1/_6483c057068b4c37fdeab720fd8364e1.jpeg[/img][img]http://i63.fastpic.ru/thumb/2014/0518/1f/_b10be2a9e5f6a61472c1ccb6e7401b1f.jpeg" alt="http://i62.fastpic.ru/thumb/2014/0518/91/_760323e4c30faf7ee5702a05837f9b91.jpeg[/img][img]http://i63.fastpic.ru/thumb/2014/0518/ac/_99bafe5599a3b9ad5b134d24100a4eac.jpeg[/img][img]http://i64.fastpic.ru/thumb/2014/0518/53/_3887d1c3413a62291af78a5c43146453.jpeg[/img][img]http://i61.fastpic.ru/thumb/2014/0518/e6/_65898f25921a45a2bcaa8c4ed682e2e6.jpeg[/img][img]http://i62.fastpic.ru/thumb/2014/0518/5c/_ef920daa2158a04a1aba7e93cf836b5c.jpeg[/img][img]http://i63.fastpic.ru/thumb/2014/0518/2c/_e447e2128fc7e5a91605055d6e0ced2c.jpeg[/img][img]http://i62.fastpic.ru/thumb/2014/0518/e1/_6483c057068b4c37fdeab720fd8364e1.jpeg[/img][img]http://i63.fastpic.ru/thumb/2014/0518/1f/_b10be2a9e5f6a61472c1ccb6e7401b1f.jpeg" />
Похожие файлы
Загрузка / Обновление
КатегорияСериалы RSS лента
Просмотров111 раз (a)
Взят1 раз (a)
Файлы2
Размер9.79 GB (10,515,427,312 байт)
Добавлен
РаздалViKa  (Искать торренты)
Участники
Участники - Загрузка / Обновление
Просматривают Просматривают Загрузка...

-†- ¿? -†-
« Предыдущая - † Страница † - Следующая »

:: Список Комментариев
Нет комментариев.

 Нет комментариев
Вам запрещенно редактировать, создать или удалять комментарии.
shpv© 2007-2014
Страничка сформирована за 0.090 секунд.
Яндекс.Метрика Rambler's Top100