скачать торрент трекер Friends
 
 Главная  •  Торренты  •  Новые релизы  •  Форум  •   •  Персоны кино  •  Правила  •  ЧаВо

Язык интерфейса
Язык интерфейса:


Привет, Гость
[15] из [15]
Введите Логин:
Введите Пароль:
Регистрация
Восстановить Пароль

Линки
АнекдотыБанкоматВсе теги / меткиДополнительные услугиТехподдержка

Главное Меню
 Главная Торренты Релизы за сегодня Персоны кино Запросы / Предложения (3) Правила ЧаВо Проверка BB кодов Топ 10 Архив новостей Прошлые опросы Форматы файлов Группы Последние комментарии Техподдержка

:: Детали раздачи
Торрент раздача является мультитрекерной — учтите, количество раздающих не будет совпадать с количеством участников на сайте (скачивание на клиентской стороне зависит от настроек uTorrent клиент программы, настройки -> Включить DHT, Обмен пирами и Поиск лок-х пиров).
Если висит надпись, пиры по нулям - не бойтесь, возможность скачать повторно торрент раздачу - есть. Попробуйте, в случае отказа - прокоментируйте или нажмите на "Позвать скачавших".

Второе дыхание / Серии: 1-8 из 8 (Сергей Пикалов)

Скачать
Магнет
ПомощьКак скачать раздачу
Поделиться
Теги / Меткимелодрама
Постер
ОписаниеГод выпуска: 2013
Производство: кинокомпания "RUmedia"
Жанр: Мелодрама
Продолжительность: ~0:50:00 серия
Субтитры: нет

Режиссёр: Сергей Пикалов

В ролях: Виктория Толстоганова, Марат Башаров, Егор Бероев, Евгения Серебренникова, Геннадий Дурнайкин, Ксения Суркова, Александр Петров (IX), Артем Фадеев, Марианна Шульц, Виктория Садовская-Чилап, Ирина Лосева, Егор Рыбаков, Денис Ясик, Сергей Греков, Галина Польских, Дмитрий Фрид, Эльвира Волошина, Андрей Бутин, Елена Лотова, Юрий Лопарёв, Виталий Филипповых, Сергей Шолох, Иван Замотаев, Виктор Цекало, Вячеслав Чернышов, Алексей Артамонов, Валентин Цзин, Николай Пивненко, Екатерина Василенко, Олег Зима, Ульяна Урванцева, Юлия Рувинская, Александр Пудов, Андрюс Паулавичюс, Вячеслав Ковалёв, Дарья Михайличенко, Наталья Чернявская, Александр Серов-Останкинский

Описание: В 2012 году правительство России увеличивает субсидии на развитие НАНОтехнологий. В семье Шевелевых, бывших работников НИИ, физиков по образованию, праздник. Завтра Игорь Шевелев выходит на работу в специальный отдел. Супругам по сорок лет, они вместе учились в университете, затем вместе еще с советских времен работали в НИИ, у них есть дочь-старшеклассница – Оксана и шестилетний сын Гоша.

Супруги едут на банкет, посвященный открытию нанолаборатории. Игорь напивается и в состоянии алкогольного опьянения сбивает сотрудника ГИБДД. Мария берет вину на себя – Игорь получил хорошую работу, а это реальный шанс для семьи Шевелевых вырваться из нищеты и обеспечить будущее детей. Мария получает полтора года.

Из колонии-поселения Мария выходит через год. Игорь работает у Сергеева (директора наноцентра), хорошо зарабатывает и любит другую женщину – Жанну, секретаршу Сергеева. Мария не может устроиться на работу по своей специальности, физика с судимостью нигде не берут, тогда Мария устраивается работать в больницу – простой санитаркой...

Все раздачи сериала: Второе дыхание

http://i29.fastpic.ru/big/2011/1030/ea/b1cf2ef64e49d1b69670beab9a74f7ea.png

Качество: HDTVRip 720p
Формат: MKV
Видео кодек: H.264
Аудио кодек: AC-3
Видео: MPEG4 Video (H264) 1280x720, ~ 3500 kbps, 25.00fps 0.152 bit/pixel
Аудио: AC-3, 6 канала, 48,0 КГц, ~384 kbps

Сторонней рекламы нет!

MediaInfo


ОбщееУникальный идентификатор : 225054227679096489285585767437789598895 (0xA94FDE1C54FB9701910957E3A46494AF)Полное имя : H:\ФИЛЬМЫ\Второе дыхание HDTVRip 720p\Второе дыхание 01_серия_HDTVRip_720p_by_Серый1779.mkvФормат : MatroskaВерсия формата : Version 2Размер файла : 1,39 ГбайтПродолжительность : 51 м.Общий поток : 3886 Кбит/секДата кодирования : UTC 2014-05-14 23:41:18Программа кодирования : mkvmerge v6.1.0 ('Old Devil') built on Mar 4 2013 09:10:42Библиотека кодирования : libebml v1.3.0 + libmatroska v1.4.0

ВидеоИдентификатор : 1Формат : AVCФормат/Информация : Advanced Video CodecПрофиль формата : High@L4.1Параметр CABAC формата : ДаПараметр ReFrames формата : 9 кадровИдентификатор кодека : V_MPEG4/ISO/AVCПродолжительность : 51 м.Битрейт : 3500 Кбит/секШирина : 1280 пикселейВысота : 720 пикселейСоотношение сторон : 16:9Режим частоты кадров : ПостоянныйЧастота кадров : 25,000 кадров/секЦветовое пространство : YUVСубдискретизация насыщенности : 4:2:0Битовая глубина : 8 битТип развёртки : ПрогрессивнаяБит/(Пиксели*Кадры) : 0.152Размер потока : 1,23 Гбайт (88%)Библиотека кодирования : x264 core 130 r2273 b3065e6Настройки программы : cabac=1 / ref=9 / deblock=1:-2:-1 / analyse=0x3:0x133 / me=umh / subme=9 / psy=1 / psy_rd=1.00:0.14 / mixed_ref=1 / me_range=32 / chroma_me=1 / trellis=2 / 8x8dct=1 / cqm=0 / deadzone=21,11 / fast_pskip=0 / chroma_qp_offset=-3 / threads=6 / lookahead_threads=1 / sliced_threads=0 / nr=0 / decimate=1 / interlaced=0 / bluray_compat=0 / constrained_intra=0 / bframes=9 / b_pyramid=2 / b_adapt=2 / b_bias=0 / direct=1 / weightb=1 / open_gop=0 / weightp=2 / keyint=250 / keyint_min=25 / scenecut=40 / intra_refresh=0 / rc=2pass / mbtree=0 / bitrate=3500 / ratetol=1.0 / qcomp=0.60 / qpmin=0 / qpmax=69 / qpstep=4 / cplxblur=20.0 / qblur=0.5 / ip_ratio=1.40 / pb_ratio=1.30 / aq=2:1.00Default : ДаForced : НетОсновные цвета : BT.709Характеристики трансфера : BT.709Коэффициенты матрицы : BT.709

АудиоИдентификатор : 2Формат : AC-3Формат/Информация : Audio Coding 3Расширение режима : CM (complete main)Параметр Endianness формата : BigИдентификатор кодека : A_AC3Продолжительность : 51 м.Вид битрейта : ПостоянныйБитрейт : 384 Кбит/секКаналы : 6 каналовРасположение каналов : Front: L C R, Side: L R, LFEЧастота : 48,0 КГцБитовая глубина : 16 битМетод сжатия : С потерямиРазмер потока : 141 Мбайт (10%)Default : ДаForced : Нет



h264 log


x264 [info]: frame I:536 Avg QP:12.00 size:106071x264 [info]: frame P:18521 Avg QP:14.18 size: 37584x264 [info]: frame B:57954 Avg QP:16.19 size: 10266x264 [info]: consecutive B-frames: 1.7% 2.4% 6.9% 53.6% 10.3% 22.5% 2.1% 0.3% 0.1% 0.1%x264 [info]: mb I I16..4: 12.2% 66.8% 21.0%x264 [info]: mb P I16..4: 3.5% 15.3% 1.8% P16..4: 38.6% 23.1% 13.5% 0.5% 0.2% skip: 3.5%x264 [info]: mb B I16..4: 0.4% 1.0% 0.1% B16..8: 35.0% 10.7% 2.2% direct: 7.8% skip:42.9% L0:40.3% L1:45.3% BI:14.4%x264 [info]: 8x8 transform intra:72.4% inter:45.6%x264 [info]: coded y,uvDC,uvAC intra: 78.7% 82.3% 69.0% inter: 20.3% 24.5% 3.3%x264 [info]: i16 v,h,dc,p: 29% 17% 7% 47%x264 [info]: i8 v,h,dc,ddl,ddr,vr,hd,vl,hu: 17% 15% 14% 7% 8% 10% 9% 10% 10%x264 [info]: i4 v,h,dc,ddl,ddr,vr,hd,vl,hu: 16% 14% 7% 8% 13% 13% 11% 9% 9%x264 [info]: i8c dc,h,v,p: 42% 26% 21% 10%x264 [info]: Weighted P-Frames: Y:4.9% UV:2.1%x264 [info]: ref P L0: 45.9% 7.4% 20.8% 6.8% 6.2% 4.1% 3.9% 2.2% 2.4% 0.3% 0.0%x264 [info]: ref B L0: 78.9% 11.7% 3.8% 2.0% 1.3% 1.2% 0.7% 0.4%x264 [info]: ref B L1: 95.6% 4.4%x264 [info]: kb/s:3500.55encoded 77011 frames, 3.11 fps, 3500.55 kb/s


Рип: http://i27.fastpic.ru/big/2012/0109/f4/e3cb3b5ce4a312896095daceb5e8bcf4.gif

Раздача группы: http://i038.radikal.ru/1312/6f/3c3564f00ec6.png

Отдельное спасибо [b]olegka7373[/b] за предоставление исходника.

Внимание ! Раздача ведётся путём добавления новых серий
Внимание! Раздача ведётся путём добавления новых серий; при каждом добавлении создётся новый торрент. Чтобы начать докачку новой серии, пользователям необходимо сделать следующее:
(1) остановить скачивание,
(2) удалить старый торрент у себя из клиента (старые серии удалять не надо),
(3) скачать новый торрент и запустить его у себя в клиенте вместо старого, при этом указать клиенту путь в старую папку куда и должно происходить скачивание новых серий.
Ваш клиент при этом должен произвести хеширование (проверку) старой папки (если не производит сам - помогите ему сделать это), и будет докачивать только те серии которых у вас ещё нет. Старые серии при этом не удаляются, а продолжают раздаваться!
Eсли вы уже удалили старые серии, то предотвратить повторную закачку старых серий можно, отжав галочку в соответсвующих местах при запуске нового торрента. По возможности, желательно не удалять старые серии как можно дольше чтобы релизёр не столько продолжал раздавать старые серии, а смог сконцентрироваться на новых.

ВНИМАНИЕ! ТОРРЕНТ ПЕРЕЗАЛИТ! ДОБАВЛЕНА 8-ая СЕРИИ!

Скриншоты
http://i64.fastpic.ru/thumb/2014/0516/d9/f318d09e84c89f4bc3da542d60e7ffd9.jpeg http://i64.fastpic.ru/thumb/2014/0516/40/f19c2f56c08996b4c06726ed20e25940.jpeg http://i64.fastpic.ru/thumb/2014/0516/0f/a162dfdec4ee888295e71f4f89e7fc0f.jpeg http://i64.fastpic.ru/thumb/2014/0516/21/71175198354855742661e6fb2f8ade21.jpeg

http://i17.fastpic.ru/big/2011/0302/93/84d6588c7f6e1cc66b53d3103e74fa93.gif[/img][img]http://s60.radikal.ru/i170/1007/6a/664e8d89abdf.gif
Похожие файлы
Загрузка / Обновление
КатегорияСериалы RSS лента
Просмотров139 раз (a)
Взят1 раз (a)
Файлы8
Размер11.20 GB (12,021,488,296 байт)
Добавлен
РаздалViKa  (Искать торренты)
Участники
Участники - Загрузка / Обновление
Просматривают Просматривают Загрузка...

-†- ¿? -†-
« Предыдущая - † Страница † - Следующая »

:: Список Комментариев
Нет комментариев.

 Нет комментариев
Вам запрещенно редактировать, создать или удалять комментарии.
shpv© 2007-2014
Страничка сформирована за 0.257 секунд.
Яндекс.Метрика Rambler's Top100