скачать торрент трекер Friends
 
 Главная  •  Торренты  •  Новые релизы  •  Форум  •   •  Персоны кино  •  Правила  •  ЧаВо

Язык интерфейса
Язык интерфейса:


Привет, Гость
[15] из [15]
Введите Логин:
Введите Пароль:
Регистрация
Восстановить Пароль

Линки
АнекдотыБанкоматВсе теги / меткиДополнительные услугиТехподдержка

Главное Меню
 Главная Торренты Релизы за сегодня Персоны кино Запросы / Предложения (3) Правила ЧаВо Проверка BB кодов Топ 10 Архив новостей Прошлые опросы Форматы файлов Группы Последние комментарии Техподдержка

:: Детали раздачи
Торрент раздача является мультитрекерной — учтите, количество раздающих не будет совпадать с количеством участников на сайте (скачивание на клиентской стороне зависит от настроек uTorrent клиент программы, настройки -> Включить DHT, Обмен пирами и Поиск лок-х пиров).
Если висит надпись, пиры по нулям - не бойтесь, возможность скачать повторно торрент раздачу - есть. Попробуйте, в случае отказа - прокоментируйте или нажмите на "Позвать скачавших".

Сестра моя, любовь / Серии: 1-16 из 16 (Игорь Войтулевич)

Скачать
Магнет
ПомощьКак скачать раздачу
Поделиться
Теги / Меткимелодрама
Постер
ОписаниеГод выпуска: 2014
Производство: © ЗАО "СТУДИЯ ОЛИМП"
Жанр: Мелодрама
Продолжительность: 00:50:00
Субтитры: нет

Режиссёр:Игорь Войтулевич

В ролях: Елена Шилова (II), Игорь Бочкин, Леонид Громов, Татьяна Космачева, Алексей Анищенко, Дмитрий Ратомский, Анна Легчилова, Виолетта Давыдовская, Владимир Любовский, Людмила Гаврилова, Николай Шатохин, Роман Ладнев, Мария Буравлева, Александр Константинов, Людмила Чиркова, Елена Любимова, Елена Коллегова, Виктор Потапешкин, Татьяна Шатилова, Ирина Чипиженко, Алевтина Добрынина, Артём Федотов, Денис Урюпин, Александр Сергеев (IV), Алексей Рыжков

Описание: Люба, студентка медицинского института, теряет горячо любимую мать. Почти сразу на героиню обрушивается и другой удар: Люба узнаёт, что нерадивый папаша, гуляка и пьяница, ей неродной. В отчаянии осиротевшая девушка отправляется на поиски настоящего отца, о котором ей рассказала мамина подруга.
Вопреки опасениям, отец и сводная сестра Катя тепло встречают ее и принимают в семью. К тому же в ее жизнь приходит любовь: новый знакомый Андрей настроен на серьезные отношения, и в мечтах Люба уже идет под венец..
Однако все планы рушит роковое стечение обстоятельств: Андрей оказывается женихом ее сестры..

Все раздачи сериала:Сестра моя, любовь

http://i29.fastpic.ru/big/2011/1030/ea/b1cf2ef64e49d1b69670beab9a74f7ea.png

Качество: HDTV 1080i
Формат: TS
Видео кодек: H.264
Аудио кодек: MP2
Видео: MPEG4 Video (H264) 1920x1080, ~ 6052 Кбит/сек, 25.00fps 0.117 bit/pixel
Аудио: MP2, 2 канала, 48,0 КГц, ~256 kbps

Сторонней рекламы нет!

MI


ОбщееИдентификатор : 1 (0x1)Полное имя : F:\Сестра моя, любовь HDTV 1080i\Сестра моя, любовь 01_серия_HDTV_1080i.tsФормат : MPEG-TSРазмер файла : 2,12 ГбайтПродолжительность : 45 м.Общий поток : 6639 Кбит/секМаксимальный общий битрейт : 35,5 Мбит/сек

ВидеоИдентификатор : 4113 (0x1011)Идентификатор меню : 1 (0x1)Формат : AVCФормат/Информация : Advanced Video CodecПрофиль формата : High@L4.0Параметр CABAC формата : ДаПараметр ReFrames формата : 3 кадраПараметры GOP формата : M=1, N=22Идентификатор кодека : 27Продолжительность : 45 м.Вид битрейта : ПеременныйБитрейт : 6052 Кбит/секМаксимальный битрейт : 40,0 Мбит/секШирина : 1920 пикс.Высота : 1080 пикс.Соотношение сторон : 16:9Частота кадров : 25,000 кадр/секСтандарт вещания : ComponentЦветовое пространство : YUVПодвыборка цветности : 4:2:0Битовая глубина : 8 битТип развёртки : ЧересстрочнаяПорядок развёртки : Верхнее поле первоеБит/(Пиксели*Кадры) : 0.117Размер потока : 1,94 Гбайт (91%)Основные цвета : BT.709-5, BT.1361, IEC 61966-2-4, SMPTE RP177Характеристики трансфера : BT.709-5, BT.1361Коэффициенты матрицы : BT.709-5, BT.1361, IEC 61966-2-4 709, SMPTE RP177

АудиоИдентификатор : 4352 (0x1100)Идентификатор меню : 1 (0x1)Формат : MPEG AudioВерсия формата : Version 1Профиль формата : Layer 2Идентификатор кодека : 4Продолжительность : 45 м.Вид битрейта : ПостоянныйБитрейт : 256 Кбит/секКаналы : 2 каналаЧастота : 48,0 КГцМетод сжатия : С потерямиРазмер потока : 83,9 Мбайт (4%)Язык : Russian


Раздача группы: http://savepic.su/3981179.png

Отдельное спасибо [b]nikolspup[/b] за предоставление материала.

Внимание ! Раздача ведётся путём добавления новых серий
Внимание! Раздача ведётся путём добавления новых серий; при каждом добавлении создётся новый торрент. Чтобы начать докачку новой серии, пользователям необходимо сделать следующее:
(1) остановить скачивание,
(2) удалить старый торрент у себя из клиента (старые серии удалять не надо),
(3) скачать новый торрент и запустить его у себя в клиенте вместо старого, при этом указать клиенту путь в старую папку куда и должно происходить скачивание новых серий.
Ваш клиент при этом должен произвести хеширование (проверку) старой папки (если не производит сам - помогите ему сделать это), и будет докачивать только те серии которых у вас ещё нет. Старые серии при этом не удаляются, а продолжают раздаваться!
Eсли вы уже удалили старые серии, то предотвратить повторную закачку старых серий можно, отжав галочку в соответсвующих местах при запуске нового торрента. По возможности, желательно не удалять старые серии как можно дольше чтобы релизёр не столько продолжал раздавать старые серии, а смог сконцентрироваться на новых.

ВНИМАНИЕ! ТОРРЕНТ ПЕРЕЗАЛИТ! ДОБАВЛЕНА 11-ая - 16-ая СЕРИИ!

Скриншоты
http://s020.radikal.ru/i709/1405/f9/3f9d28ccd35at.jpg http://s019.radikal.ru/i631/1405/dc/8721103dfb1ft.jpg http://i057.radikal.ru/1405/e6/b81b99d47ce7t.jpg http://s43.radikal.ru/i099/1405/02/e235ad098e51t.jpg

http://i17.fastpic.ru/big/2011/0302/93/84d6588c7f6e1cc66b53d3103e74fa93.gif[/img][img]http://s60.radikal.ru/i170/1007/6a/664e8d89abdf.gif
Скриншоты
Похожие файлы
Загрузка / Обновление
КатегорияСериалы RSS лента
Просмотров216 раз (a)
Взят2 раз (a)
Файлы16
Размер32.55 GB (34,951,277,212 байт)
Добавлен
РаздалViKa  (Искать торренты)
Участники
Участники - Загрузка / Обновление
Просматривают Просматривают Загрузка...

-†- ¿? -†-
« Предыдущая - † Страница † - Следующая »

:: Список Комментариев
Нет комментариев.

 Нет комментариев
Вам запрещенно редактировать, создать или удалять комментарии.
shpv© 2007-2014
Страничка сформирована за 0.066 секунд.
Яндекс.Метрика Rambler's Top100