скачать торрент трекер Friends
 
 Главная  •  Торренты  •  Новые релизы  •  Форум  •   •  Персоны кино  •  Правила  •  ЧаВо

Язык интерфейса
Язык интерфейса:


Привет, Гость
[15] из [15]
Введите Логин:
Введите Пароль:
Регистрация
Восстановить Пароль

Линки
АнекдотыБанкоматВсе теги / меткиДополнительные услугиТехподдержка

Главное Меню
 Главная Торренты Релизы за сегодня Персоны кино Запросы / Предложения (3) Правила ЧаВо Проверка BB кодов Топ 10 Архив новостей Прошлые опросы Форматы файлов Группы Последние комментарии Техподдержка

:: Детали раздачи
Торрент раздача является мультитрекерной — учтите, количество раздающих не будет совпадать с количеством участников на сайте (скачивание на клиентской стороне зависит от настроек uTorrent клиент программы, настройки -> Включить DHT, Обмен пирами и Поиск лок-х пиров).
Если висит надпись, пиры по нулям - не бойтесь, возможность скачать повторно торрент раздачу - есть. Попробуйте, в случае отказа - прокоментируйте или нажмите на "Позвать скачавших".

Восьмидесятые / Сезон: 1-3 / Серии: 1-52 из 52 (Фёдор Стуков)

Скачать
Магнет
ПомощьКак скачать раздачу
Поделиться
Теги / Меткикомедия, мелодрама
Постер
ОписаниеГод выпуска: 2011-2013
Производство: Леан-М по заказу СТС
Жанр: комедия, мелодрама
Продолжительность: серия ~ 00:25:0
Режиссёр: Фёдор Стуков

В ролях: Александр Якин, Александр Половцев, Мария Аронова, Александр Новицкий, Дмитрий Белоцерковский, Наталья Земцова, Анна Цуканова, Никита Ефремов, Роман Фомин, Анастасия Балякина, Леонид Громов, Юлия Сулес, Наталья Карпунина, Артур Ваха, Игорь Лагутин, Роман Маякин, Ирина Чипиженко, Елена Лебедева, Виктория Левкина

Описание: Эта история началась еще в 1986 году. Уже шла перестройка, но Советский Союз еще не распался. Это было время, когда не было интернета, гипермаркетов и даже мобильных телефонов, но зато воду пили из-под крана, в Москве не было пробок, а ключи от квартиры спокойно оставляли под ковриком.

Сэмпл: http://multi-up.com/972841
Все раздачи сериала Восьмидесятые

Качество: SATRip
Формат: AVI
Видео кодек: XviD
Аудио кодек: MP3
Видео: 704x400 (16:9) 25.00fps 1 429 Kbps, 0.203 bit/pixel
Аудио: MPEG Audio 48000Hz stereo 128 Кбит/сек

MI
General
Complete name : E:\Video\Serials\Восьмидесятые.SATRip\Vosmidesjatye.01.2012.SATRip.avi
Format : AVI
Format/Info : Audio Video Interleave
File size : 278 MiB
Duration : 24mn 47s
Overall bit rate : 1 566 Kbps
Writing application : VirtualDubMod 1.5.10.3 | www.virtualdub-fr.org || (build 2550/release)
Writing library : VirtualDubMod build 2550/release

Video
ID : 0
Format : MPEG-4 Visual
Format profile : Advanced Simple@L5
Format settings, BVOP : 2
Format settings, QPel : No
Format settings, GMC : No warppoints
Format settings, Matrix : Default (MPEG)
Muxing mode : Packed bitstream
Codec ID : XVID
Codec ID/Hint : XviD
Duration : 24mn 47s
Bit rate : 1 429 Kbps
Width : 704 pixels
Height : 400 pixels
Display aspect ratio : 16:9
Frame rate : 25.000 fps
Color space : YUV
Chroma subsampling : 4:2:0
Bit depth : 8 bits
Scan type : Progressive
Compression mode : Lossy
Bits/(Pixel*Frame) : 0.203
Stream size : 253 MiB (91%)
Writing library : XviD 64

Audio
ID : 1
Format : MPEG Audio
Format version : Version 1
Format profile : Layer 3
Mode : Joint stereo
Codec ID : 55
Codec ID/Hint : MP3
Duration : 24mn 47s
Bit rate mode : Constant
Bit rate : 128 Kbps
Channel(s) : 2 channels
Sampling rate : 48.0 KHz
Compression mode : Lossy
Stream size : 22.7 MiB (8%)
Alignment : Aligned on interleaves
Interleave, duration : 40 ms (1.00 video frame)
Interleave, preload duration : 504 ms


Скриншоты
[img]http://i44.fastpic.ru/thumb/2012/1015/b2/b529092410fc66e09b2fa9f149e464b2.jpeg[/img][img]http://i44.fastpic.ru/thumb/2012/1015/96/fcf2eead6f72f376119520e090777696.jpeg[/img][img]http://i44.fastpic.ru/thumb/2012/1015/d6/9ea8ce1e5af9ce37bae0912a38f1b0d6.jpeg" alt="http://i44.fastpic.ru/thumb/2012/1015/32/ceadd56cd103d8c7f123048fdef53532.jpeg[/img][img]http://i44.fastpic.ru/thumb/2012/1015/b2/b529092410fc66e09b2fa9f149e464b2.jpeg[/img][img]http://i44.fastpic.ru/thumb/2012/1015/96/fcf2eead6f72f376119520e090777696.jpeg[/img][img]http://i44.fastpic.ru/thumb/2012/1015/d6/9ea8ce1e5af9ce37bae0912a38f1b0d6.jpeg" />
Похожие файлы
Загрузка / Обновление
КатегорияСериалы RSS лента
Просмотров143 раз (a)
Взят3 раз (a)
Файлы52
Размер13.72 GB (14,732,118,016 байт)
Добавлен
РаздалViKa  (Искать торренты)
Участники
Участники - Загрузка / Обновление
Просматривают Просматривают Загрузка...

-†- ¿? -†-
« Предыдущая - † Страница † - Следующая »

:: Список Комментариев
Нет комментариев.

 Нет комментариев
Вам запрещенно редактировать, создать или удалять комментарии.
shpv© 2007-2014
Страничка сформирована за 0.093 секунд.
Яндекс.Метрика Rambler's Top100