скачать торрент трекер Friends
 
 Главная  •  Торренты  •  Новые релизы  •  Форум  •   •  Персоны кино  •  Правила  •  ЧаВо

Язык интерфейса
Язык интерфейса:


Привет, Гость
[15] из [15]
Введите Логин:
Введите Пароль:
Регистрация
Восстановить Пароль

Линки
АнекдотыБанкоматВсе теги / меткиДополнительные услугиТехподдержка

Главное Меню
 Главная Торренты Релизы за сегодня Персоны кино Запросы / Предложения (3) Правила ЧаВо Проверка BB кодов Топ 10 Архив новостей Прошлые опросы Форматы файлов Группы Последние комментарии Техподдержка

:: Детали раздачи
Торрент раздача является мультитрекерной — учтите, количество раздающих не будет совпадать с количеством участников на сайте (скачивание на клиентской стороне зависит от настроек uTorrent клиент программы, настройки -> Включить DHT, Обмен пирами и Поиск лок-х пиров).
Если висит надпись, пиры по нулям - не бойтесь, возможность скачать повторно торрент раздачу - есть. Попробуйте, в случае отказа - прокоментируйте или нажмите на "Позвать скачавших".

Ликвидация / Сезон: 1 / Серии: 1-14 из 14 (Сергей Урсуляк)

Скачать
Магнет
ПомощьКак скачать раздачу
Поделиться
Теги / Меткивоенный фильм, детектив, исторический
Постер
ОписаниеГод выпуска: 2007
Производство: ЗАО "Централ Партнершип" студия "Дед Мороз"
Жанр: военный фильм, детектив, исторический
Продолжительность: 00:47:00
Режиссёр: Сергей Урсуляк

В ролях: Владимир Машков, Михаил Пореченков, Владимир Меньшов, Сергей Маковецкий, Светлана Крючкова, Юрий Лахин, Александр Сирин, Константин Лавроненко, Константин Желдин, Полина Агуреева, Лика Нифонтова, Ксения Раппопорт, Диана Малая, Виктор Смирнов, Фёдор Добронравов, Борис Каморзин, Александр Голубев, Виктор Супрун, Андрей Бронников, Сергей Угрюмов, Алексей Кирющенко, Александр Семчев, Максим Дрозд, Николай Спиридонов, Олег Басилашвили, Юрий Авшаров, Олег Кассин, Валерий Трошин, Беата Маковская, Сергей Рубеко, Виктор Соловьёв, Геннадий Чулков, Пётр Меркурьев, Владимир Юматов, Станислав Стрелков, Алексей Жиров, Александр Матросов, Сергей Неудачин, Евгений Куршинский, Виктор Тереля, Роман Крюков, Станислав Лесной, Вячеслав Молоков, Олег Семисынов, Виктор Лысенко

Описание: Лето 1946 года. Маршал Жуков в опале. Он отправлен в ссылку в Одессу, где нет житья от воров, убийц и вымогателей, а дерзкая безжалостная банда «Степные волки» повадилась грабить военные склады. И всем заправляет неуловимый немецкий шпион «Академик», которого никто не знает в лицо. И только начальник угрозыска Давид Гоцман и Георгий Жуков могут спасти город. Они задумывают сложную и опасную операцию…

[img]http://kinoafisha.ru/ratingi1048097.png[/img][img]http://i63.fastpic.ru/big/2014/0515/74/51924ff666e137adb23ec6da1e8f9c74.gif" alt="http://rating.kinopoisk.ru/378244.gif[/img][img]http://kinoafisha.ru/ratingi1048097.png[/img][img]http://i63.fastpic.ru/big/2014/0515/74/51924ff666e137adb23ec6da1e8f9c74.gif" />

http://i62.fastpic.ru/big/2014/0515/5f/9cc1cf36c2c0468a0d55f8eba851f65f.gif
http://i64.fastpic.ru/big/2014/0515/21/0ee7e011888e329c09b50ec16f138021.png

Качество: DVDRip-AVC
Формат: MKV
Видео кодек: H.264
Аудио кодек: AC3
Видео: MPEG4 Video (H264), 720x400, 25fps,2 400 Kbps,Bits/Pixel0.333
Аудио: AC3 48000Hz, 6ch, 640kbps

MI
Общее
Уникальный идентификатор : 220252773233073709729935400331576298732 (0xA5B324211F0D02489E939B5BD4474CEC)
Полное имя : E:\Ликвидация\
Формат : Matroska
Версия формата : Version 1
Размер файла : 987 Мбайт
Продолжительность : 45 м.
Общий поток : 3043 Кбит/сек
Дата кодирования : UTC 2014-05-14 20:58:32
Программа кодирования : mkvmerge v2.4.0 ('Fumbling Towards Ecstasy') built on Oct 11 2008 20:13:15
Библиотека кодирования : libebml v0.7.7 + libmatroska v0.8.1

Видео
Идентификатор : 1
Формат : AVC
Формат/Информация : Advanced Video Codec
Профиль формата : High@L4.1
Параметр CABAC формата : Да
Параметр ReFrames формата : 3 кадра
Идентификатор кодека : V_MPEG4/ISO/AVC
Продолжительность : 45 м.
Битрейт : 2400 Кбит/сек
Ширина : 720 пикселей
Высота : 400 пикселей
Соотношение сторон : 16:9
Режим частоты кадров : Постоянный
Частота кадров : 25,000 кадров/сек
Цветовое пространство : YUV
Субдискретизация насыщенности : 4:2:0
Битовая глубина : 8 бит
Тип развёртки : Прогрессивная
Бит/(Пиксели*Кадры) : 0.333
Размер потока : 760 Мбайт (77%)
Библиотека кодирования : x264 core 65 r999kMod cc51047
Настройки программы : cabac=1 / ref=3 / deblock=1:-1:-1 / analyse=0x3:0x133 / me=dia / subme=7 / psy_rd=1.0:0.0 / mixed_ref=1 / me_range=16 / chroma_me=1 / trellis=0 / 8x8dct=1 / cqm=0 / deadzone=21,11 / chroma_qp_offset=-2 / threads=4 / thread_queue=4 / nr=0 / decimate=1 / mbaff=0 / bframes=9 / b_pyramid=1 / b_adapt=1 / b_bias=0 / direct=3 / wpredb=0 / keyint=250 / keyint_min=25 / scenecut=40(pre) / rc=2pass / bitrate=2400 / ratetol=1.0 / qcomp=0.60 / qpmin=10 / qpmax=51 / qpstep=4 / cplxblur=20.0 / qblur=0.5 / ip_ratio=1.40 / pb_ratio=1.30 / aq=1:1.00
Default : Да
Forced : Нет

Аудио
Идентификатор : 2
Формат : AC-3
Формат/Информация : Audio Coding 3
Расширение режима : CM (complete main)
Параметр Endianness формата : Big
Идентификатор кодека : A_AC3
Продолжительность : 45 м.
Вид битрейта : Постоянный
Битрейт : 640 Кбит/сек
Каналы : 6 каналов
Расположение каналов : Front: L C R, Side: L R, LFE
Частота : 48,0 КГц
Битовая глубина : 16 бит
Метод сжатия : С потерями
Размер потока : 208 Мбайт (21%)
Default : Да
Forced : Нет


h264 log
x264 2400kbps 720x400 25.000fps (69137 frames)
...first pass...
--pass 1 --bitrate 2400 --level 4.1 --ref 3 --mixed-refs --filter -1,-1 --bframes 9 --direct auto --b-pyramid --analyse none --subme 1 --me dia --threads 4 --progress --sar 1:1 --stats "C:\Temp\0048.log" --output NUL "C:\Temp\0048.avs"
x264 [info]: cabac=1 ref=3 deblock=1:-1:-1 analyse=0x1:0 me=dia subme=1 psy_rd=0.0:0.0 mixed_ref=1 me_range=16 chroma_me=1 trellis=0 8x8dct=0 cqm=0 deadzone=21,11 chroma_qp_offset=0 threads=4 thread_queue=4 nr=0 decimate=1 mbaff=0 bframes=9 b_pyramid=1 b_adapt=1 b_bias=0 direct=3 wpredb=0 keyint=250 keyint_min=25 scenecut=40(pre) rc=abr bitrate=2400 ratetol=1.0 qcomp=0.60 qpmin=10 qpmax=51 qpstep=4 ip_ratio=1.40 pb_ratio=1.30 aq=1:1.00
...last pass...
--pass 2 --bitrate 2400 --level 4.1 --ref 3 --mixed-refs --filter -1,-1 --bframes 9 --direct auto --b-pyramid --analyse all --8x8dct --subme 7 --me dia --threads 4 --progress --stats "C:\Temp\0048.log" --sar 1:1 --output "C:\Temp\0048.264" "C:\Temp\0048.avs"
x264 [info]: using cpu capabilities: MMX2 SSE2Fast SSSE3 PHADD SSE4 Cache64
x264 [info]: cabac=1 ref=3 deblock=1:-1:-1 analyse=0x3:0x133 me=dia subme=7 psy_rd=1.0:0.0 mixed_ref=1 me_range=16 chroma_me=1 trellis=0 8x8dct=1 cqm=0 deadzone=21,11 chroma_qp_offset=-2 threads=4 thread_queue=4 nr=0 decimate=1 mbaff=0 bframes=9 b_pyramid=1 b_adapt=1 b_bias=0 direct=3 wpredb=0 keyint=250 keyint_min=25 scenecut=40(pre) rc=2pass bitrate=2400 ratetol=1.0 qcomp=0.60 qpmin=10 qpmax=51 qpstep=4 cplxblur=20.0 qblur=0.5 ip_ratio=1.40 pb_ratio=1.30 aq=1:1.00


Скриншоты
http://i63.fastpic.ru/big/2014/0515/b7/9653ab673208e733692a2c6b943dc7b7.jpg
http://i62.fastpic.ru/big/2014/0515/6c/629041fc4f18fd3f883593162fd3806c.jpg
http://i62.fastpic.ru/big/2014/0515/4b/b219c014a8fdcee1e78438adf9eade4b.jpg
http://i62.fastpic.ru/big/2014/0515/52/e07f54336cd7c26152f169e85abae552.jpg


http://i61.fastpic.ru/big/2014/0515/ff/c1ab7c9be9010b762cefeb3c559a59ff.jpg
http://i62.fastpic.ru/big/2014/0515/a8/16c509505a7ed79e3134c0dcb5cbbba8.jpg


http://i64.fastpic.ru/big/2014/0515/c3/6fc55f5f4d9d942aad517bffb86b5cc3.gif
Скриншоты
Похожие файлы
Загрузка / Обновление
КатегорияСериалы RSS лента
Просмотров274 раз (a)
Взят1 раз (a)
Файлы14
Размер13.58 GB (14,584,157,635 байт)
Добавлен
РаздалViKa  (Искать торренты)
Участники
Участники - Загрузка / Обновление
Просматривают Просматривают Загрузка...

-†- ¿? -†-
« Предыдущая - † Страница † - Следующая »

:: Список Комментариев
Нет комментариев.

 Нет комментариев
Вам запрещенно редактировать, создать или удалять комментарии.
shpv© 2007-2014
Страничка сформирована за 0.123 секунд.
Яндекс.Метрика Rambler's Top100