скачать торрент трекер Friends
 
 Главная  •  Торренты  •  Новые релизы  •  Форум  •   •  Персоны кино  •  Правила  •  ЧаВо

Язык интерфейса
Язык интерфейса:


Привет, Гость
[15] из [15]
Введите Логин:
Введите Пароль:
Регистрация
Восстановить Пароль

Линки
АнекдотыБанкоматВсе теги / меткиДополнительные услугиТехподдержка

Главное Меню
 Главная Торренты Релизы за сегодня Персоны кино Запросы / Предложения (3) Правила ЧаВо Проверка BB кодов Топ 10 Архив новостей Прошлые опросы Форматы файлов Группы Последние комментарии Техподдержка

:: Детали раздачи
Торрент раздача является мультитрекерной — учтите, количество раздающих не будет совпадать с количеством участников на сайте (скачивание на клиентской стороне зависит от настроек uTorrent клиент программы, настройки -> Включить DHT, Обмен пирами и Поиск лок-х пиров).
Если висит надпись, пиры по нулям - не бойтесь, возможность скачать повторно торрент раздачу - есть. Попробуйте, в случае отказа - прокоментируйте или нажмите на "Позвать скачавших".

Поговори со мною о любви / Серии 1-4 из 4 (Артем Насыбулин)

Скачать
Магнет
ПомощьКак скачать раздачу
Поделиться
Теги / Меткимелодрама
Постер
ОписаниеВыпущено: Россия, кинокомпания "Русское"
Жанр: мелодрама
Год выпуска: 2013
Продолжительность: 00:45:00
Субтитры: нет

Режиссер: Артем Насыбулин
В ролях: Карина Андоленко, Игорь Бочкин, Марина Яковлева, Александр Пашков, Артём Михалков, Александр Мякушко, Татьяна Шатилова, Лариса Домаскина, Татьяна Лянник, Екатерина Травова, Роман Полянский, Дарья Егорова, Валентин Варецкий, Ирина Суркова, Кристина Пакарина, Владимир Мельников, Владимир Кебин, Алла Миронова, Виктор Черепанов

Описание: Таня Петрунина – бойкая и прямодушная деревенская девушка, дочь и правая рука председателя колхоза. Накануне свадьбы жених Гришка изменяет ей с городской кокеткой и без зазрения совести бросает невесту.
В деревне начинают судачить, удастся ли теперь Тане с ее бойким нравом найти вторую половину. Тем временем на ее сердце уже метят глава агрохолдинга Малахов и новый деревенский шофер Петр.

http://i26.fastpic.ru/big/2012/1007/c2/3d4ebe5afcc90878620a21afe0b7e2c2.png http://www.kinopoisk.ru/rating/794478.gif

Все раздачи сериала

Автор рипа / записи: fanatus
Исходник: Запись с телеканала РОССИЯ HD
Качество: HDTVRip 720p
Формат: MKV
Видео кодек: H.264
Аудио кодек: AC3

Видео: MPEG-4 AVC, 3486 kbps , 1280x720 (16:9), 25.000 fps, 0.151 bit/pixel
Аудио: AC3, 2 ch, 48 kHz, 192 kbps

MediaInfo
General
Unique ID : 228074656521043895628900807153962036243 (0xAB9594C004C27A3AB1C812179CB9AC13)
Complete name : E:\Pogovori_so_mnoj_o_ljubvi.(1-4.serii.iz.4).2013.x264.HDTVRip.720p.fanatus\1-2_serija.mkv
Format : Matroska
Format version : Version 2
File size : 2.29 GiB
Duration : 1h 29mn
Overall bit rate : 3 678 Kbps
Movie name : Pogovori so mnoj o ljubvi (2013) - fanatus
Encoded date : UTC 2014-05-18 17:12:08
Writing application : mkvmerge v3.4.0 ('Rapunzel') сборка от May 15 2010 09:38:20
Writing library : libebml v0.8.0 + libmatroska v0.9.0

Video
ID : 1
Format : AVC
Format/Info : Advanced Video Codec
Format profile : High@L4.1
Format settings, CABAC : Yes
Format settings, ReFrames : 8 frames
Codec ID : V_MPEG4/ISO/AVC
Duration : 1h 29mn
Bit rate : 3 486 Kbps
Width : 1 280 pixels
Height : 720 pixels
Display aspect ratio : 16:9
Frame rate : 25.000 fps
Color space : YUV
Chroma subsampling : 4:2:0
Bit depth : 8 bits
Scan type : Progressive
Bits/(Pixel*Frame) : 0.151
Stream size : 2.13 GiB (93%)
Title : 1-2 serija
Writing library : x264 core 142 r2409 d6b4e63
Encoding settings : cabac=1 / ref=8 / deblock=1:-2:-2 / analyse=0x3:0x113 / me=umh / subme=10 / psy=1 / psy_rd=1.00:0.10 / mixed_ref=1 / me_range=32 / chroma_me=1 / trellis=2 / 8x8dct=1 / cqm=0 / deadzone=21,11 / fast_pskip=0 / chroma_qp_offset=-3 / threads=16 / lookahead_threads=2 / sliced_threads=0 / nr=0 / decimate=0 / interlaced=0 / bluray_compat=0 / constrained_intra=0 / bframes=8 / b_pyramid=2 / b_adapt=2 / b_bias=0 / direct=3 / weightb=1 / open_gop=0 / weightp=2 / keyint=250 / keyint_min=25 / scenecut=40 / intra_refresh=0 / rc=2pass / mbtree=0 / bitrate=3486 / ratetol=1.0 / qcomp=0.65 / qpmin=0 / qpmax=69 / qpstep=4 / cplxblur=20.0 / qblur=0.5 / ip_ratio=1.40 / pb_ratio=1.30 / aq=1:0.90
Language : Russian
Default : Yes
Forced : No

Audio
ID : 2
Format : AC-3
Format/Info : Audio Coding 3
Mode extension : CM (complete main)
Format settings, Endianness : Big
Codec ID : A_AC3
Duration : 1h 29mn
Bit rate mode : Constant
Bit rate : 192 Kbps
Channel(s) : 2 channels
Channel positions : Front: L R
Sampling rate : 48.0 KHz
Bit depth : 16 bits
Compression mode : Lossy
Stream size : 122 MiB (5%)
Language : Russian
Default : Yes
Forced : No


Скриншот c названием фильма
http://radikal.ru/F/s006.radikal.ru/i214/1405/53/1eddea008874.png



Скриншоты
http://radikal.ru/F/s020.radikal.ru/i708/1405/be/b85e03c493d4.png
http://radikal.ru/F/i069.radikal.ru/1405/b8/bb4760346e6d.png
http://radikal.ru/F/s020.radikal.ru/i708/1405/30/7cbf8ee83aa2.png
http://radikal.ru/F/s019.radikal.ru/i638/1405/0b/450446c0af00.png
http://radikal.ru/F/s006.radikal.ru/i214/1405/db/61a009652574.png
http://radikal.ru/F/s52.radikal.ru/i137/1405/0f/0eb5ad75a1c5.png
http://radikal.ru/F/s019.radikal.ru/i630/1405/8d/9571d6fbc0ca.png
http://radikal.ru/F/s020.radikal.ru/i709/1405/98/0bb624f4bff9.png
http://radikal.ru/F/s018.radikal.ru/i518/1405/89/b2a9b93deb59.png
http://radikal.ru/F/s018.radikal.ru/i517/1405/7e/fa02b6f2eb79.png
Скриншоты
Похожие файлы
Загрузка / Обновление
КатегорияСериалы RSS лента
Просмотров199 раз (a)
Взят1 раз (a)
Файлы2
Размер4.56 GB (4,893,078,660 байт)
Добавлен
РаздалViKa  (Искать торренты)
Участники
Участники - Загрузка / Обновление
Просматривают Просматривают Загрузка...

-†- ¿? -†-
« Предыдущая - † Страница † - Следующая »

:: Список Комментариев
Нет комментариев.

 Нет комментариев
Вам запрещенно редактировать, создать или удалять комментарии.
shpv© 2007-2014
Страничка сформирована за 0.295 секунд.
Яндекс.Метрика Rambler's Top100