скачать торрент трекер Friends
 
 Главная  •  Торренты  •  Новые релизы  •  Форум  •   •  Персоны кино  •  Правила  •  ЧаВо

Язык интерфейса
Язык интерфейса:


Привет, Гость
[15] из [15]
Введите Логин:
Введите Пароль:
Регистрация
Восстановить Пароль

Линки
АнекдотыБанкоматВсе теги / меткиДополнительные услугиТехподдержка

Главное Меню
 Главная Торренты Релизы за сегодня Персоны кино Запросы / Предложения (3) Правила ЧаВо Проверка BB кодов Топ 10 Архив новостей Прошлые опросы Форматы файлов Группы Последние комментарии Техподдержка

:: Детали раздачи

[КПК] Пять смертей академика Королева / П'ять смертей академіка Корольова (2009) [SATRip, MP4, H.264, AAC]

Скачать
Магнет
ПомощьКак скачать раздачу
Поделиться
Теги / Меткидокументальный, исторический
Постер
ОписаниеЯзык: Украинский, cубтитры: отсутствуют
Формат: SATRip, MP4, H.264, AAC
Страна: Украина, 07 Продакшн
Режиссер: Иван Кравчишин
Жанр: документальный, исторический
Продолжительность: 00:50:36
Год выпуска: 2009
Устройство: КПК

Описание: Жизнь гениального конструктора, сделавшего Советский Союз передовой ракетно-космической державой, много раз висела на волоске. Сергея Королева чуть не расстреляли как "врага народа". Во время ссылки на Колыму чудом найденная в сугробах буханка хлеба спасла его от неминуемой смерти. Он должен был утонуть в Тихом океане, но опоздал на последний пароход, который напоролся на рифы. Казалось бы, сама судьба оберегала его для великой цели – первым показать человечеству космос.

Видео: 400х320 (1.25:1), 25 fps, AVC(x264) www.applian.com


Video #1
ID : 1
Format : AVC
Format/Info : Advanced Video Codec
Format profile : Baseline@L3.0
Format settings, CABAC : No
Format settings, ReFrames : 3 frames
Codec ID : avc1
Codec ID/Info : Advanced Video Coding
Duration : 50mn 36s
Bit rate : 512 Kbps
Width : 400 pixels
Height : 320 pixels
Display aspect ratio : 4:3
Frame rate mode : Constant
Frame rate : 25.000 fps
Color space : YUV
Chroma subsampling : 4:2:0
Bit depth : 8 bits
Scan type : Progressive
Bits/(Pixel*Frame) : 0.160
Stream size : 184 MiB (93%)
Writing library : x264 core 107
Encoding settings : cabac=0 / ref=3 / deblock=1:0:0 / analyse=0x1:0x11 / me=dia / subme=7 / psy=1 / psy_rd=1.00:0.00 / mixed_ref=0 / me_range=4 / chroma_me=1 / trellis=2 / 8x8dct=0 / cqm=0 / deadzone=21,11 / fast_pskip=1 / chroma_qp_offset=-2 / threads=4 / sliced_threads=0 / nr=0 / decimate=1 / interlaced=0 / constrained_intra=0 / bframes=0 / weightp=0 / keyint=250 / keyint_min=25 / scenecut=40 / intra_refresh=0 / rc_lookahead=40 / rc=abr / mbtree=1 / bitrate=512 / ratetol=1.0 / qcomp=0.50 / qpmin=10 / qpmax=51 / qpstep=3 / ip_ratio=1.41 / aq=1:1.00
Encoded date : UTC 1970-01-01 00:00:00
Tagged date : UTC 1970-01-01 00:00:00

Audio #2
ID : 2
Format : AAC
Format/Info : Advanced Audio Codec
Format profile : LC
Codec ID : 40
Duration : 50mn 35s
Bit rate mode : Variable
Bit rate : 38.0 Kbps
Channel(s) : 2 channels
Channel(s)_Original : 1 channel
Channel positions : Front: C
Sampling rate : 22.05 KHz
Compression mode : Lossy
Stream size : 13.7 MiB (7%)
Encoded date : UTC 1970-01-01 00:00:00
Tagged date : UTC 1970-01-01 00:00:00
[/spoiler]
Показать скриншоты
Скриншоты
Похожие файлы
Загрузка / Обновление
КатегорияPDA RSS лента
Просмотров194 раз (a)
Взят1 раз (a)
Файлы1
Размер199.11 MB (208,781,851 байт)
Добавлен
Раздалshpv  (Искать торренты)
Участники
Участники - Загрузка / Обновление
Просматривают Просматривают Загрузка...

-†- ¿? -†-
« Предыдущая - † Страница † - Следующая »

:: Список Комментариев
Нет комментариев.

 Нет комментариев
Вам запрещенно редактировать, создать или удалять комментарии.
shpv© 2007-2014
Страничка сформирована за 0.036 секунд.
Яндекс.Метрика Rambler's Top100