скачать торрент трекер Friends
 
 Главная  •  Торренты  •  Новые релизы  •  Форум  •   •  Персоны кино  •  Правила  •  ЧаВо

Язык интерфейса
Язык интерфейса:


Привет, Гость
[15] из [15]
Введите Логин:
Введите Пароль:
Регистрация
Восстановить Пароль

Линки
АнекдотыБанкоматВсе теги / меткиДополнительные услугиТехподдержка

Главное Меню
 Главная Торренты Релизы за сегодня Персоны кино Запросы / Предложения (3) Правила ЧаВо Проверка BB кодов Топ 10 Архив новостей Прошлые опросы Форматы файлов Группы Последние комментарии Техподдержка

:: Детали раздачи

Irma Thomas - Collection [1967-2009, R B, Soul, FLAC, Lossless]

Скачать
Магнет
ПомощьКак скачать раздачу
Поделиться
Теги / Меткиr&b, soul
Постер
ОписаниеФормат: FLAC, tracks, lossless
Год выпуска: 1967-2009
Страна: США
Жанр: R&B, Soul
Продолжительность: 03:55:47
Описание:
Треклист:
1967 - Something Good: The Muscle Shoals Sessions (00:37:54)

Закрыть
1988 - The Way I Feel (00:38:00)

Закрыть
1991 - Live: Simply the Best (01:05:36)

Закрыть
1992 - True Believer (00:42:44)

Закрыть
1996 - Sweet Soul Queen Of New Orleans: The Irma Thomas Collection (00:59:51)

Закрыть
1996 - Time Is on My Side (01:05:39)

Закрыть
2000 - My Heart Is In Memphis (00:53:39)

Закрыть
2006 - A Woman's Viewpoint - The Essential 1970's Recordings (01:07:07)

Закрыть[spoiler=2006 - After The Rain (00:49:17)]
http://i63.fastpic.ru/big/2014/0605/3d/eb19e7efa209224fef10e71030ffe13d.jpg
01. In The Middle Of It All
02. Flowers
03. I Count The Tears
04. Make Me A Pallet On Your Floor
05. I Wish I Knew How It Would Feel To Be Free
06. If You Knew How Much
07. Another Man Done Gone
08. Till I Can't Take It Anymore
09. These Honey Dos
10. Another Lonely Heart
11. Soul Of A Man
12. Stone Survivor
13. Shelter In The RainОтчёт ЕАСExact Audio Copy V0.99 prebeta 4 from 23. January 2008

EAC extraction logfile from 7. March 2009, 22:12

Irma Thomas / After The Rain

Used drive : TSSTcorpCDDVDW SH-S223F Adapter: 3 ID: 0

Read mode : Secure
Utilize accurate stream : Yes
Defeat audio cache : Yes
Make use of C2 pointers : No

Read offset correction : 6
Overread into Lead-In and Lead-Out : No
Fill up missing offset samples with silence : Yes
Delete leading and trailing silent blocks : No
Null samples used in CRC calculations : Yes
Used interface : Native Win32 interface for Win NT & 2000
Gap handling : Appended to previous track

Used output format : User Defined Encoder
Selected bitrate : 768 kBit/s
Quality : High
Add ID3 tag : No
Command line compressor : C:\Program Files (x86)\Exact Audio Copy\FLAC\FLAC.EXE
Additional command line options : -V -8 -T "artist=%a" -T "title=%t" -T "album=%g" -T "date=%y" -T "tracknumber=%n" -T "genre=%m" %s

TOC of the extracted CD

Track | Start | Length | Start sector | End sector
---------------------------------------------------------
1 | 0:00.00 | 4:45.55 | 0 | 21429
2 | 4:45.55 | 4:22.39 | 21430 | 41118
3 | 9:08.19 | 3:03.00 | 41119 | 54843
4 | 12:11.19 | 4:30.08 | 54844 | 75101
5 | 16:41.27 | 3:03.20 | 75102 | 88846
6 | 19:44.47 | 2:27.35 | 88847 | 99906
7 | 22:12.07 | 3:49.62 | 99907 | 117143
8 | 26:01.69 | 3:27.58 | 117144 | 132726
9 | 29:29.52 | 4:27.72 | 132727 | 152823
10 | 33:57.49 | 4:20.56 | 152824 | 172379
11 | 38:18.30 | 3:01.54 | 172380 | 186008
12 | 41:20.09 | 3:49.33 | 186009 | 203216
13 | 45:09.42 | 4:14.67 | 203217 | 222333

Track 1

Filename C:\music\rips\Irma Thomas\After The Rain\01 - In The Middle Of It All.wav

Pre-gap length 0:00:02.00

Peak level 100.0 %
Track quality 100.0 %
Test CRC A01069AD
Copy CRC A01069AD
Accurately ripped (confidence 7) [E22D9711]
Copy OK

Track 2

Filename C:\music\rips\Irma Thomas\After The Rain\02 - Flowers.wav

Peak level 100.0 %
Track quality 100.0 %
Test CRC C752DBE9
Copy CRC C752DBE9
Accurately ripped (confidence 7) [AC0EC30A]
Copy OK

Track 3

Filename C:\music\rips\Irma Thomas\After The Rain\03 - I Count The Tears.wav

Pre-gap length 0:00:00.31

Peak level 98.0 %
Track quality 100.0 %
Test CRC 7A5E8EE7
Copy CRC 7A5E8EE7
Accurately ripped (confidence 7) [EC96E5AA]
Copy OK

Track 4

Filename C:\music\rips\Irma Thomas\After The Rain\04 - Make Me A Pallet On Your Floor.wav

Pre-gap length 0:00:00.27

Peak level 100.0 %
Track quality 100.0 %
Test CRC 0A8CD972
Copy CRC 0A8CD972
Accurately ripped (confidence 7) [959BEB20]
Copy OK

Track 5

Filename C:\music\rips\Irma Thomas\After The Rain\05 - I Wish I Knew How It Would Feel To Be Free.wav

Pre-gap length 0:00:01.31

Peak level 100.0 %
Track quality 99.9 %
Test CRC 2B7EDA46
Copy CRC 2B7EDA46
Accurately ripped (confidence 7) [93164EB9]
Copy OK

Track 6

Filename C:\music\rips\Irma Thomas\After The Rain\06 - If You Knew How Much.wav

Pre-gap length 0:00:00.44

Peak level 100.0 %
Track quality 100.0 %
Test CRC 1062D5E4
Copy CRC 1062D5E4
Accurately ripped (confidence 7) [B18FA4DC]
Copy OK

Track 7

Filename C:\music\rips\Irma Thomas\After The Rain\07 - Another Man Done Gone.wav

Peak level 100.0 %
Track quality 100.0 %
Test CRC 32B87ABB
Copy CRC 32B87ABB
Accurately ripped (confidence 7) [D9B29E7F]
Copy OK

Track 8

Filename C:\music\rips\Irma Thomas\After The Rain\08 - Till I Can't Take It Anymore.wav

Pre-gap length 0:00:00.29

Peak level 99.9 %
Track quality 100.0 %
Test CRC 7122C1FC
Copy CRC 7122C1FC
Accurately ripped (confi
Скриншоты
Похожие файлы
Загрузка / Обновление
КатегорияМузыка RSS лента
Просмотров224 раз (a)
Взят5 раз (a)
Файлы227
Размер3.22 GB (3,455,414,257 байт)
Добавлен
Раздалshpv  (Искать торренты)
Участники
Участники - Загрузка / Обновление
Просматривают Просматривают Загрузка...

-†- ¿? -†-
« Предыдущая - † Страница † - Следующая »

:: Список Комментариев
Нет комментариев.

 Нет комментариев
Вам запрещенно редактировать, создать или удалять комментарии.
shpv© 2007-2014
Страничка сформирована за 2.412 секунд.
Яндекс.Метрика Rambler's Top100