скачать торрент трекер Friends
 
 Главная  •  Торренты  •  Новые релизы  •  Форум  •   •  Персоны кино  •  Правила  •  ЧаВо

Язык интерфейса
Язык интерфейса:


Привет, Гость
[15] из [15]
Введите Логин:
Введите Пароль:
Регистрация
Восстановить Пароль

Линки
АнекдотыБанкоматВсе теги / меткиДополнительные услугиТехподдержка

Главное Меню
 Главная Торренты Релизы за сегодня Персоны кино Запросы / Предложения (3) Правила ЧаВо Проверка BB кодов Топ 10 Архив новостей Прошлые опросы Форматы файлов Группы Последние комментарии Техподдержка

:: Детали раздачи

Королева игры / Серии: 1-28 из 28 (Роман Ярославцев, Константин Таран)

Скачать
Магнет
ПомощьКак скачать раздачу
Поделиться
Теги / Меткидрама, мелодрама
Постер
ОписаниеГод выпуска: 2014
Производство: «Дуэт»
Жанр: Драма, мелодрама
Продолжительность: ~0:45:00 серия
Субтитры: украинские вшитые

Режиссёр: Роман Ярославцев, Константин Таран

В ролях: Янина Соколовская, Михаил Полосухин, Надежда Бахтина, Вахтанг Беридзе, Мила Август, Алексей Кондрахов, Анна Данькова, Александр Кузнецов, Лилия Кондрова, Александр Дзюба, Лариса Баранова (II), Павел Григорьев, Игорь Карташёв, Алексей Лонгин, Полина Одинцова, Трофим Пихтулов

Описание: Ровно двадцать лет назад отец Анны, будучи еще начинающим бизнесменом, путем махинаций отнял гостиницу у отца Сергея и лишил его бизнеса, состояния и смысла жизни. Сергей, семи лет от роду, совершенно случайно стал свидетелем этого унижения и все последующие годы он лелеял только одну мечту - отомстить. Сергей хочет нанести отцу Анны смертельный удар, понимая, что сможет это сделать только через его любимую, единственную дочь. Но не все так просто. Влюбив Анну в себя, Сергей сам влюбляется в нее, и теперь перед ним стоит нелегкий выбор - идти до конца в своих намерениях отомстить или выбрать любовь Анны и отступить.

Все раздачи сериала: Королева игры

http://i29.fastpic.ru/big/2011/1030/ea/b1cf2ef64e49d1b69670beab9a74f7ea.png

Качество: DVB
Формат: MPEG
Видео кодек: MPEG2
Аудио кодек: MPEG1
Видео: MPEG2 Video 768х576 @ 720x576 (4:3) 25.00fps ~4474 Kbps (0.431 bit/pixel)
Аудио: MPEG Audio 48000Hz 1 channels 192 Кбит/сек

Сторонней рекламы нет!

MediaInfo


ОбщееПолное имя : F:\Королева игры DVB\Королева игры 01_серия_DVB_by_Серый1779.mpgФормат : MPEG-PSРазмер файла : 1,72 ГбайтПродолжительность : 51 м.Общий поток : 4759 Кбит/секБиблиотека кодирования : (c) 1998-2008 Womble Multimedia, Inc. / MPEG Video Wizard (08/2008) / Aug 25 2008

ВидеоИдентификатор : 224 (0xE0)Формат : MPEG VideoВерсия формата : Version 2Профиль формата : Main@MainПараметр BVOP формата : ДаПараметр матрицы формата : По умолчаниюПродолжительность : 51 м.Вид битрейта : ПеременныйБитрейт : 4473 Кбит/секНоминальный битрейт : 15,0 Мбит/секШирина : 720 пикс.Высота : 576 пикс.Соотношение сторон : 4:3Частота кадров : 25,000 кадр/секСтандарт вещания : PALЦветовое пространство : YUVПодвыборка цветности : 4:2:0Битовая глубина : 8 битТип развёртки : ЧересстрочнаяПорядок развёртки : Верхнее поле первоеМетод сжатия : С потерямиБит/(Пиксели*Кадры) : 0.431Размер потока : 1,61 Гбайт (94%)Библиотека кодирования : (c) 1998-2008 Womble Multimedia, Inc. / MPEG Video Wizard (08/2008) / Aug 25 2008

АудиоИдентификатор : 192 (0xC0)Формат : MPEG AudioВерсия формата : Version 1Профиль формата : Layer 2Продолжительность : 51 м.Вид битрейта : ПостоянныйБитрейт : 192 Кбит/секКаналы : 1 каналЧастота : 48,0 КГцМетод сжатия : С потерямиРазмер потока : 71,0 Мбайт (4%)


Запись и монтаж: http://i27.fastpic.ru/big/2012/0109/f4/e3cb3b5ce4a312896095daceb5e8bcf4.gif

Раздача группы: http://static.rutracker.org/pic/rgrs/logo.png

Внимание ! Раздача ведётся путём добавления новых серий
Внимание! Раздача ведётся путём добавления новых серий; при каждом добавлении создётся новый торрент. Чтобы начать докачку новой серии, пользователям необходимо сделать следующее:
(1) остановить скачивание,
(2) удалить старый торрент у себя из клиента (старые серии удалять не надо),
(3) скачать новый торрент и запустить его у себя в клиенте вместо старого, при этом указать клиенту путь в старую папку куда и должно происходить скачивание новых серий.
Ваш клиент при этом должен произвести хеширование (проверку) старой папки (если не производит сам - помогите ему сделать это), и будет докачивать только те серии которых у вас ещё нет. Старые серии при этом не удаляются, а продолжают раздаваться!
Eсли вы уже удалили старые серии, то предотвратить повторную закачку старых серий можно, отжав галочку в соответсвующих местах при запуске нового торрента. По возможности, желательно не удалять старые серии как можно дольше чтобы релизёр не столько продолжал раздавать старые серии, а смог сконцентрироваться на новых.

ВНИМАНИЕ! ТОРРЕНТ ПЕРЕЗАЛИТ! ДОБАВЛЕНА 27-ая - 28-ая СЕРИИ!

Скриншоты
http://i64.fastpic.ru/thumb/2014/0520/c4/bc2bb63fa86acb097debf69a4aa038c4.jpeg http://i64.fastpic.ru/thumb/2014/0520/0d/3f6efc889972217876ecddee679c260d.jpeg http://i64.fastpic.ru/thumb/2014/0520/0e/4f24f00dd70b562d25533dbacb1fc30e.jpeg http://i64.fastpic.ru/thumb/2014/0520/f6/2deeeafc19d4984eaccd1c53fef08df6.jpeg http://i64.fastpic.ru/thumb/2014/0520/d7/414a11b8e44171b1df85cbaa598ef5d7.jpeg

http://i17.fastpic.ru/big/2011/0302/93/84d6588c7f6e1cc66b53d3103e74fa93.gif[/img][img]http://s60.radikal.ru/i170/1007/6a/664e8d89abdf.gif
Похожие файлы
Загрузка / Обновление
КатегорияСериалы RSS лента
Просмотров251 раз (a)
Взят5 раз (a)
Файлы28
Размер48.47 GB (52,048,402,432 байт)
ТраффикСкачано: 116.00 MB, Отдано: 42.09 MB
Добавлен
РаздалViKa  (Искать торренты)
Участники
Участники - Загрузка / Обновление
Просматривают Просматривают Загрузка...

-†- ¿? -†-
« Предыдущая - † Страница † - Следующая »

:: Список Комментариев
Нет комментариев.

 Нет комментариев
Вам запрещенно редактировать, создать или удалять комментарии.
shpv© 2007-2014
Страничка сформирована за 0.059 секунд.
Яндекс.Метрика Rambler's Top100