скачать торрент трекер Friends
 
 Главная  •  Торренты  •  Новые релизы  •  Форум  •   •  Персоны кино  •  Правила  •  ЧаВо

Язык интерфейса
Язык интерфейса:


Привет, Гость
[15] из [15]
Введите Логин:
Введите Пароль:
Регистрация
Восстановить Пароль

Линки
АнекдотыБанкоматВсе теги / меткиДополнительные услугиТехподдержка

Главное Меню
 Главная Торренты Релизы за сегодня Персоны кино Запросы / Предложения (3) Правила ЧаВо Проверка BB кодов Топ 10 Архив новостей Прошлые опросы Форматы файлов Группы Последние комментарии Техподдержка

:: Детали раздачи
Торрент раздача является мультитрекерной — учтите, количество раздающих не будет совпадать с количеством участников на сайте (скачивание на клиентской стороне зависит от настроек uTorrent клиент программы, настройки -> Включить DHT, Обмен пирами и Поиск лок-х пиров).
Если висит надпись, пиры по нулям - не бойтесь, возможность скачать повторно торрент раздачу - есть. Попробуйте, в случае отказа - прокоментируйте или нажмите на "Позвать скачавших".

Папа для Софии / Серии: 1-4 из 4 (Сергей Лялин)

Скачать
Магнет
ПомощьКак скачать раздачу
Поделиться
Теги / Меткимелодрама
Постер
ОписаниеГод выпуска: 2014
Производство: кинокомпания «Русское»
Жанр: Мелодрама
Продолжительность: 00:46:00 (2 части: по 1 ч 30 мин)
Субтитры: Нет

Режиссёр: Сергей Лялин

В ролях: Александр Хващинский, Карина Андоленко, Глафира Тарханова, Ольга Остроумова, Александр Дьяченко, Алёна Ивченко, Денис Варенов, Алла Музалёва, Любава Грешнова

Описание: В жизни Вари мало радости: рабочие будни похожи друг на друга, любви нет, и молодость проходит мимо. Девушка уже не ждет перемен; она привыкла, что романы и страсти – удел ярких подружек, а ее недаром прозвали «синим чулком». Но неожиданно жизнь сводит Варю с Игорем, импозантным москвичом, приехавшим в компанию с проверкой бухгалтерии. Девушка теряет голову и проводит с ним ночь.. Уезжая домой, Игорь из вежливости зовет Варю заезжать в гости. Он, конечно, не мог предположить, что девушка бросит работу и отправится в столицу за своей любовью.





Доп. информация: Реклама отсутствует!





Релиз группы:: http://static.rutracker.org/pic/rgrs/logo.png





Все раздачи сериала: http://rutracker.org/forum/tracker.php?f=9&nm=Папа%20для%20Софии
Сэмпл: https://cloud.mail.ru/public/e4a9e7149caf/%D0%9F%D0...Rip. by.simka.avi

Качество: SATRip
Формат: AVI
Видео кодек: XviD
Аудио кодек: MP3
Видео: 704x368, 25 fps, XviD, ~1444 kbps, 0.229 bit/pixel
Аудио: 48 kHz, MPEG Layer 3, 2 ch, 192 kbps

MI
Общее
Полное имя : Y:\Сериалы 2014\Папа для Софии (2014)\Папа для Софии.(01.seriya).2014.XviD.SATRip.by.simka.avi
Формат : AVI
Формат/Информация : Audio Video Interleave
Размер файла : 550 Мбайт
Продолжительность : 46 м.
Общий поток : 1646 Кбит/сек
Программа кодирования : VirtualDubModRus 1.5.10.2 (build 2542/release)
Библиотека кодирования : VirtualDubMod build 2542/release

Видео
Идентификатор : 0
Формат : MPEG-4 Visual
Профиль формата : Advanced Simple@L5
Параметр BVOP формата : 1
Параметр QPel формата : Нет
Параметр GMC формата : Без точки перехода
Параметр матрицы формата : Default (MPEG)
Идентификатор кодека : XVID
Идентификатор кодека/Подсказка : XviD
Продолжительность : 46 м.
Битрейт : 1444 Кбит/сек
Ширина : 704 пикселя
Высота : 368 пикселей
Соотношение сторон : 1,913
Частота кадров : 25,000 кадров/сек
Цветовое пространство : YUV
Субдискретизация насыщенности : 4:2:0
Битовая глубина : 8 бит
Тип развёртки : Прогрессивная
Метод сжатия : С потерями
Бит/(Пиксели*Кадры) : 0.223
Размер потока : 483 Мбайт (88%)
Библиотека кодирования : XviD 1.2.1 (UTC 2008-12-04)

Аудио
Идентификатор : 1
Формат : MPEG Audio
Версия формата : Version 1
Профиль формата : Layer 3
Режим : Joint stereo
Расширение режима : MS Stereo
Идентификатор кодека : 55
Идентификатор кодека/Подсказка : MP3
Продолжительность : 46 м.
Вид битрейта : Постоянный
Битрейт : 192 Кбит/сек
Каналы : 2 канала
Частота : 48,0 КГц
Метод сжатия : С потерями
Размер потока : 64,2 Мбайт (12%)
Выравнивание : Соединение по промежуткам
Продолжительность промежутка : 40 мс. (1,00 видеокадр)
Время предзагрузки промежутка : 504 мс.
Библиотека кодирования : LAME3.99r
Настройки программы : -m j -V 4 -q 2 -lowpass 18.6 -b 192


Скриншоты
http://firepic.org/?v=2.2014-05-17_5mjb6ec0k15r.png
http://firepic.org/?v=2.2014-05-17_yxvwg8ecqint.png
http://firepic.org/?v=2.2014-05-17_sayzksme6vf1.png
http://firepic.org/?v=2.2014-05-17_1i1b0usxheko.png
http://firepic.org/?v=2.2014-05-17_boqrw5af5z5f.png
http://firepic.org/?v=2.2014-05-17_hgjd3p5tyuxf.png
http://firepic.org/?v=2.2014-05-17_dlnhv2j0h1wc.png
http://firepic.org/?v=2.2014-05-17_27rwby4l3w2w.png
http://firepic.org/?v=2.2014-05-17_fphzdm3oza0q.png


-------------

Внимание! Раздача ведётся путём добавления новых выпусков
При каждом добавлении создаётся новый торрент. Чтобы начать докачку нового выпуска, пользователям необходимо сделать следующее:
П остановить скачивание;
П удалить старый торрент у себя из клиента (старые выпуски удалять не надо);
П скачать новый торрент и запустить его у себя в клиенте вместо старого, при этом указать клиенту путь в старую папку куда и должно происходить скачивание новых выпусков;
П ваш клиент при запуске должен произвести хеширование (проверку) старой папки (если не производит сам - помогите ему сделать это), и будет докачивать только те выпуски, которых у вас ещё нет. Старые выпуски при этом не удаляются, а продолжают раздаваться!, Конец фильма!, Продолжения в понедельник если не доберется ПО http://static.rutracker.org/smiles/icon_biggrin.gif

П Eсли вы уже удалили старые выпуски, то предотвратить повторную закачку старых выпусков можно, отжав галочку в соответсвующих местах при запуске нового торрента.внимания в 4-й серии отсутствует около 7 минут из за погодних условий завтра с повтора надеюсь записать и будет замена!!! Концовка есть думаю не поттера ети 7 мин

Добавлена 4-я серия
Похожие файлы
Загрузка / Обновление
КатегорияСериалы RSS лента
Просмотров203 раз (a)
Взят1 раз (a)
Файлы4
Размер2.15 GB (2,310,324,224 байт)
ТраффикСкачано: 2.01 GB, Отдано: 533.75 MB
Добавлен
РаздалViKa  (Искать торренты)
Участники
Участники - Загрузка / Обновление
Просматривают Просматривают Загрузка...

-†- ¿? -†-
« Предыдущая - † Страница † - Следующая »

:: Список Комментариев
Нет комментариев.

 Нет комментариев
Вам запрещенно редактировать, создать или удалять комментарии.
shpv© 2007-2014
Страничка сформирована за 0.032 секунд.
Яндекс.Метрика Rambler's Top100