скачать торрент трекер Friends
 
 Главная  •  Торренты  •  Новые релизы  •  Форум  •   •  Персоны кино  •  Правила  •  ЧаВо

Язык интерфейса
Язык интерфейса:


Привет, Гость
[15] из [15]
Введите Логин:
Введите Пароль:
Регистрация
Восстановить Пароль

Линки
АнекдотыБанкоматВсе теги / меткиДополнительные услугиТехподдержка

Главное Меню
 Главная Торренты Релизы за сегодня Персоны кино Запросы / Предложения (3) Правила ЧаВо Проверка BB кодов Топ 10 Архив новостей Прошлые опросы Форматы файлов Группы Последние комментарии Техподдержка

:: Детали раздачи

Трансформеры: Эпоха истребления / Transformers: Age of Extinction [IMAX EDITION] (Майкл Бэй / Michael Bay) [2014, фантастика, боевик, приключения, BDRip] DUB

Скачать
Магнет
ПомощьКак скачать раздачу
Поделиться
Теги / Меткифантастика, боевик, приключения
Постер
ОписаниеПеревод: Профессиональный (полное дублирование) [Чистый звук] DD 5.1 VERSION, субтитры: отсутствуют
Формат: BDRip, AVI, XviD, AC3
Страна: США
Режиссер: Майкл Бэй / Michael Bay
Жанр: фантастика, боевик, приключения
Продолжительность: 02:45:07
Год выпуска: 2014
В ролях: Марк Уолберг (Cade Yeager), Никола Пельтц (Tessa Yeager), Джек Рейнор (Shane Dyson), Стэнли Туччи (Joshua Joyce), Келси Грэммер (Harold Attinger), Титус Уэлливер (James Savoy), ТиДжей Миллер (Lucas Flannery), Ли Бинбин (Su Yueming), София Майлс (Darcy Tirrel), Питер Каллен (Optimus Prime, озвучка), Джон Гудман (Hound, озвучка), Кен Ватанабе (Drift, озвучка)
Описание: Автоботы и десептиконы оставили человечество собирать планету по кусочкам. Между тем группа могущественных бизнесменов и гениальных ученых пытается извлечь уроки из ошибок прошлого и улучшить технологии до такой степени, чтобы выйти за пределы контролируемого ранее. В это время другая группа - древних мощных трансформеров - берет Землю под прицел.

http://imdb.snick.ru/ratefor/02/tt2109248.png
http://rating.kinopoisk.ru/651857.gif http://turbopic.org/img/2011_03/19/84f2b3e1-162c-48ef-a9f2-be882ddb0ce4.png www.virtualdub-fr.org
|| (build 2550/release)
Формат оригинала/Имя : Фильм
Правообладатель: Goldenshara

Видео
Идентификатор: 0
Формат : MPEG-4 Visual
Профиль формата: Advanced Simple@L5
Параметр BVOP формата: 2
Параметр QPel формата: Нет
Параметр GMC формата : Без точки перехода
Параметр матрицы формата : Default (H.263)
Идентификатор кодека : XVID
Идентификатор кодека/Подсказка : XviD
Продолжительность: 2 ч. 45 м.
Битрейт: 1498 Кбит/сек
Ширина : 720 пикселей
Высота : 384 пикселя
Соотношение сторон : 1,85:1
Частота кадров : 23,976 кадра/сек
Цветовое пространство: YUV
Субдискретизация насыщенности: 4:2:0
Битовая глубина: 8 бит
Тип развёртки: Прогрессивная
Метод сжатия : С потерями
Бит/(Пиксели*Кадры): 0.226
Размер потока: 1,73 Гбайт (79%)
Библиотека кодирования : XviD 64

Аудио
Идентификатор: 1
Формат : AC-3
Формат/Информация: Audio Coding 3
Расширение режима: CM (complete main)
Параметр Endianness формата: Big
Идентификатор кодека : 2000
Продолжительность: 2 ч. 45 м.
Вид битрейта : Постоянный
Битрейт: 384 Кбит/сек
Каналы : 6 каналов
Расположение каналов : Front: L C R, Side: L R, LFE
Частота: 48,0 КГц
Битовая глубина: 16 бит
Метод сжатия : С потерями
Размер потока: 454 Мбайт (20%)
Выравнивание : Разделение по промежуткам
Продолжительность промежутка : 42мс. (1,00 видеокадр)
Время предзагрузки промежутка: 500мс.
[/spoiler]

Показать скриншоты
Скриншоты
Похожие файлы
Загрузка / Обновление
КатегорияФильмы AVI RSS лента
Просмотров267 раз (a)
Взят3 раз (a)
Файлы1
Размер2.18 GB (2,344,749,056 байт)
Добавлен
Раздалshpv  (Искать торренты)
Участники
Участники - Загрузка / Обновление
Просматривают Просматривают Загрузка...

-†- ¿? -†-
« Предыдущая - † Страница † - Следующая »

:: Список Комментариев
Нет комментариев.

 Нет комментариев
Вам запрещенно редактировать, создать или удалять комментарии.
shpv© 2007-2014
Страничка сформирована за 0.078 секунд.
Яндекс.Метрика Rambler's Top100