скачать торрент трекер Friends
 
 Главная  •  Торренты  •  Новые релизы  •  Форум  •   •  Персоны кино  •  Правила  •  ЧаВо

Язык интерфейса
Язык интерфейса:


Привет, Гость
[15] из [15]
Введите Логин:
Введите Пароль:
Регистрация
Восстановить Пароль

Линки
АнекдотыБанкоматВсе теги / меткиДополнительные услугиТехподдержка

Главное Меню
 Главная Торренты Релизы за сегодня Персоны кино Запросы / Предложения (3) Правила ЧаВо Проверка BB кодов Топ 10 Архив новостей Прошлые опросы Форматы файлов Группы Последние комментарии Техподдержка

:: Детали раздачи
Торрент раздача является мультитрекерной — учтите, количество раздающих не будет совпадать с количеством участников на сайте (скачивание на клиентской стороне зависит от настроек uTorrent клиент программы, настройки -> Включить DHT, Обмен пирами и Поиск лок-х пиров).
Если висит надпись, пиры по нулям - не бойтесь, возможность скачать повторно торрент раздачу - есть. Попробуйте, в случае отказа - прокоментируйте или нажмите на "Позвать скачавших".

Интерны / Сезон: 11 / Серии: 1-20 из 20 (Maкcим Пeжeмcкий, Динa Штуpмaнoвa)

Скачать
Магнет
ПомощьКак скачать раздачу
Поделиться
Теги / Меткиситком
Постер
ОписаниеГод выпуска: 2014
Производство: Comedy Club Production
Жанр: Ситком
Продолжительность: ~00:25:00
Режиссёр: Maкcим Пeжeмcкий, Динa Штуpмaнoвa

В ролях: Иван Охлобыстин, Илья Глинников, Александр Ильин мл., Вадим Демчог, Светлана Камынина, Юлия Назаренко-Благая, Один Ланд Байрон, Светлана Пермякова, Илья Шидловский, Александр Ляпин, Аглая Тарасова

Описание: Некоторые люди в белых халатах уверены, что сердце - всего лишь мышца, качающая кровь. Но только не герои нового сезона «Интернов». На вверенном доктору Быкову этаже кипят пушкинские страсти: интриги, секс и любовные треугольники стали нормой жизни . А перчинки всему этому добавят шаманы в палатах, жены с почасовой оплатой и всего один, но зато настоящий пистолет. Все смешалось в отделении доктора Быкова!

Качество: WEB-DL 720p
Формат: MKV
Видео кодек: H.264
Аудио кодек: AC-3
Видео: 1280x720, 25 fps, ~4000 kbps
Аудио: 2 канала, 44.1 КГц, 192 kbps

MediaInfo


1 серия
General
Complete name : D:\Интерны. Сезон 11 (2014)\Интерны. Сезон 11. Серия 01 (2014).mkv
Format : Matroska
File size : 756 MiB
Duration : 24mn 45s
Overall bit rate : 4 268 Kbps
Encoded date : UTC 2014-10-06 09:07:46
Writing application : mkvmerge v6.1.0 ('Old Devil') built on Mar 4 2013 09:10:42
Writing library : libebml v1.3.0 + libmatroska v1.4.0

Video
ID : 1
Format : AVC
Format/Info : Advanced Video Codec
Format profile : High@L5.1
Format settings, CABAC : Yes
Format settings, ReFrames : 2 frames
Codec ID : V_MPEG4/ISO/AVC
Duration : 24mn 45s
Bit rate mode : Variable
Bit rate : 3 991 Kbps
Maximum bit rate : 4 800 Kbps
Width : 1 280 pixels
Height : 720 pixels
Display aspect ratio : 16:9
Frame rate : 25.000 fps
Standard : PAL
Color space : YUV
Chroma subsampling : 4:2:0
Bit depth : 8 bits
Scan type : Progressive
Bits/(Pixel*Frame) : 0.173
Stream size : 707 MiB (94%)
Color primaries : BT.709-5, BT.1361, IEC 61966-2-4, SMPTE RP177
Transfer characteristics : BT.709-5, BT.1361
Matrix coefficients : BT.709-5, BT.1361, IEC 61966-2-4 709, SMPTE RP177

Audio
ID : 2
Format : AC-3
Format/Info : Audio Coding 3
Mode extension : CM (complete main)
Codec ID : A_AC3
Duration : 24mn 45s
Bit rate mode : Constant
Bit rate : 192 Kbps
Channel(s) : 2 channels
Channel positions : Front: L R
Sampling rate : 44.1 KHz
Bit depth : 16 bits
Stream size : 34.0 MiB (4%)


6 серия
General
Complete name : D:\Интерны. Сезон 11 (2014)\Интерны. Сезон 11. Серия 06 (2014).mkv
Format : Matroska
File size : 758 MiB
Duration : 24mn 46s
Overall bit rate : 4 277 Kbps
Encoded date : UTC 2014-10-13 08:17:28
Writing application : mkvmerge v7.2.0 ('On Every Street') 64bit built on Sep 13 2014 15:52:10
Writing library : libebml v1.3.0 + libmatroska v1.4.1

Video
ID : 1
Format : AVC
Format/Info : Advanced Video Codec
Format profile : High@L5.1
Format settings, CABAC : Yes
Format settings, ReFrames : 2 frames
Codec ID : V_MPEG4/ISO/AVC
Duration : 24mn 46s
Bit rate mode : Variable
Maximum bit rate : 4 800 Kbps
Width : 1 280 pixels
Height : 720 pixels
Display aspect ratio : 16:9
Frame rate : 50.000 fps
Original frame rate : 25.000 fps
Standard : PAL
Color space : YUV
Chroma subsampling : 4:2:0
Bit depth : 8 bits
Scan type : Progressive
Title : AGRMusic.org
Color primaries : BT.709-5, BT.1361, IEC 61966-2-4, SMPTE RP177
Transfer characteristics : BT.709-5, BT.1361
Matrix coefficients : BT.709-5, BT.1361, IEC 61966-2-4 709, SMPTE RP177

Audio
ID : 2
Format : AAC
Format/Info : Advanced Audio Codec
Format version : Version 4
Format profile : LC
Codec ID : A_AAC
Duration : 24mn 46s
Channel(s) : 2 channels
Channel positions : Front: L R
Sampling rate : 44.1 KHz
Video delay : -40ms
Title : AGRMusic.org


11 серия
General
Complete name : D:\Интерны. Сезон 11 (2014)\Интерны. Сезон 11. Серия 11 (2014).mkv
Format : Matroska
File size : 765 MiB
Duration : 24mn 56s
Overall bit rate : 4 286 Kbps
Encoded date : UTC 2014-10-21 08:34:33
Writing application : mkvmerge v7.2.0 ('On Every Street') 64bit built on Sep 13 2014 15:52:10
Writing library : libebml v1.3.0 + libmatroska v1.4.1

Video
ID : 1
Format : AVC
Format/Info : Advanced Video Codec
Format profile : High@L5.1
Format settings, CABAC : Yes
Format settings, ReFrames : 2 frames
Codec ID : V_MPEG4/ISO/AVC
Duration : 24mn 56s
Bit rate mode : Variable
Maximum bit rate : 4 800 Kbps
Width : 1 280 pixels
Height : 720 pixels
Display aspect ratio : 16:9
Frame rate : 50.000 fps
Original frame rate : 25.000 fps
Standard : PAL
Color space : YUV
Chroma subsampling : 4:2:0
Bit depth : 8 bits
Scan type : Progressive
Title : AGRMusic.org
Color primaries : BT.709-5, BT.1361, IEC 61966-2-4, SMPTE RP177
Transfer characteristics : BT.709-5, BT.1361
Matrix coefficients : BT.709-5, BT.1361, IEC 61966-2-4 709, SMPTE RP177

Audio
ID : 2
Format : AAC
Format/Info : Advanced Audio Codec
Format version : Version 4
Format profile : LC
Codec ID : A_AAC
Duration : 24mn 56s
Channel(s) : 2 channels
Channel positions : Front: L R
Sampling rate : 44.1 KHz
Video delay : -40ms
Title : AGRMusic.org


17 серия
General
Complete name : D:\Интерны. Сезон 11 (2014)\Интерны. Сезон 11. Серия 17 (2014).mkv
Format : Matroska
File size : 765 MiB
Duration : 24mn 59s
Overall bit rate : 4 281 Kbps
Encoded date : UTC 2014-10-30 10:01:29
Writing application : mkvmerge v6.1.0 ('Old Devil') built on Mar 4 2013 09:10:42
Writing library : libebml v1.3.0 + libmatroska v1.4.0

Video
ID : 1
Format : AVC
Format/Info : Advanced Video Codec
Format profile : High@L5.1
Format settings, CABAC : Yes
Format settings, ReFrames : 2 frames
Codec ID : V_MPEG4/ISO/AVC
Duration : 24mn 59s
Bit rate mode : Variable
Bit rate : 4 004 Kbps
Maximum bit rate : 4 800 Kbps
Width : 1 280 pixels
Height : 720 pixels
Display aspect ratio : 16:9
Frame rate : 25.000 fps
Standard : PAL
Color space : YUV
Chroma subsampling : 4:2:0
Bit depth : 8 bits
Scan type : Progressive
Bits/(Pixel*Frame) : 0.174
Stream size : 716 MiB (94%)
Color primaries : BT.709-5, BT.1361, IEC 61966-2-4, SMPTE RP177
Transfer characteristics : BT.709-5, BT.1361
Matrix coefficients : BT.709-5, BT.1361, IEC 61966-2-4 709, SMPTE RP177

Audio
ID : 2
Format : AC-3
Format/Info : Audio Coding 3
Mode extension : CM (complete main)
Codec ID : A_AC3
Duration : 24mn 59s
Bit rate mode : Constant
Bit rate : 192 Kbps
Channel(s) : 2 channels
Channel positions : Front: L R
Sampling rate : 44.1 KHz
Bit depth : 16 bits
Stream size : 34.3 MiB (4%)




Скриншоты


1 серия
http://i68.fastpic.ru/thumb/2014/1031/f9/29168d0a66972129661ed7ce76bad6f9.jpeg http://i66.fastpic.ru/thumb/2014/1031/55/83593836b8c90b26d9e048036d05a655.jpeg http://i65.fastpic.ru/thumb/2014/1031/2e/556975e3eef336603525760bd841202e.jpeg


6 серия
http://i68.fastpic.ru/thumb/2014/1031/28/0234c294d132a3318415a6b6a3d8e328.jpeg http://i67.fastpic.ru/thumb/2014/1031/bb/2bab27463318663b0fb79cc8774f74bb.jpeg http://i67.fastpic.ru/thumb/2014/1031/f1/0f87db50cf054823c6ee1f0cd98c34f1.jpeg


11 серия
http://i68.fastpic.ru/thumb/2014/1031/e6/7d26c15a98caedb5a27007b5160c9ee6.jpeg http://i65.fastpic.ru/thumb/2014/1031/15/e602c7be5e9ba3012580ad31e3faf415.jpeg http://i66.fastpic.ru/thumb/2014/1031/c1/539ce0191b22348442f7cffc69cd2bc1.jpeg


17 серия
http://i68.fastpic.ru/thumb/2014/1031/9e/d3892fd88bfa941c32d0f57acc1f5d9e.jpeg http://i68.fastpic.ru/thumb/2014/1031/7b/97b2ce5b854b8f2b7fd35c749774337b.jpeg http://i64.fastpic.ru/thumb/2014/1031/6d/93af77ee533bb483053fb735fd08af6d.jpeg
Скриншоты
Похожие файлы
Загрузка / Обновление
КатегорияСериалы RSS лента
Просмотров963 раз (a)
Взят10 раз (a)
Файлы20
Размер13.46 GB (14,455,562,479 байт)
Добавлен
РаздалViKa  (Искать торренты)
Участники
Участники - Загрузка / Обновление
Просматривают Просматривают Загрузка...

-†- ¿? -†-
« Предыдущая - † Страница † - Следующая »

:: Список Комментариев
Нет комментариев.

 Нет комментариев
Вам запрещенно редактировать, создать или удалять комментарии.
shpv© 2007-2014
Страничка сформирована за 0.163 секунд.
Яндекс.Метрика Rambler's Top100