скачать торрент трекер Friends
 
 Главная  •  Торренты  •  Новые релизы  •  Форум  •   •  Персоны кино  •  Правила  •  ЧаВо

Язык интерфейса
Язык интерфейса:


Привет, Гость
[15] из [15]
Введите Логин:
Введите Пароль:
Регистрация
Восстановить Пароль

Линки
АнекдотыБанкоматВсе теги / меткиДополнительные услугиТехподдержка

Главное Меню
 Главная Торренты Релизы за сегодня Персоны кино Запросы / Предложения (3) Правила ЧаВо Проверка BB кодов Топ 10 Архив новостей Прошлые опросы Форматы файлов Группы Последние комментарии Техподдержка

:: Детали раздачи
Торрент раздача является мультитрекерной — учтите, количество раздающих не будет совпадать с количеством участников на сайте (скачивание на клиентской стороне зависит от настроек uTorrent клиент программы, настройки -> Включить DHT, Обмен пирами и Поиск лок-х пиров).
Если висит надпись, пиры по нулям - не бойтесь, возможность скачать повторно торрент раздачу - есть. Попробуйте, в случае отказа - прокоментируйте или нажмите на "Позвать скачавших".

Белые волки 2 / Сезон: 2 / Серии: 1-12 из 12 (Александр Бурцев (II), Дмитрий Сошников) [2013, боевик, SATRip] :: RuTracker.org

Скачать
Магнет
ПомощьКак скачать раздачу
Поделиться
Теги / Меткибоевик
Постер
ОписаниеГод выпуска: 2013
Производство: Россия, «Интра Фильм»
Жанр: боевик
Продолжительность: 00:48:00
Субтитры: нет

Режиссёр: Александр Бурцев (II), Дмитрий Сошников

В ролях: Андрей Аверьянов, Татьяна Калих, Денис Бобышев, Артем Бородич, Максим Житник, Александр Ильин (IV), Станислав Боклан, Олег Примогенов, Михаил Жонин, Георгий Пицхелаури, Александр Баширов, Михаил Есьман, Мария Жиганова, Анатолий Зиновенко, Владислав Мамчур, Алёна Козырева, Валентина Пугачёва (II), Юрий Шульган, Виктор Васильев (II), Сергей Деревянко, Игорь Петрусенко, Олег Коваленко, Евгений Подгорный, Антонина Макарчук, Вячеслав Соломка, Илья Прокопив, Юрис Тэтэ, Евгения Брага, Назар Майборода, Андрей Пономаренко, Михаил Игнатов, Ирина Новоселова, Константин Воробьёв (II), Игорь Зоров, Юрий Яковлев-Суханов, Виктор Родомский, Георгий Хостикоев, Влада Родомская, Александр Галафутник, Любава Грешнова, Владимир Кузнецов (IV), Валерий Антонюк (II), Александр Коломиец, Сергей Сипливый, Георгий Поволоцкий

Описание: После ареста Ли в городе появляется таинственный «Хозяин». Он начинает постепенно прибирать к рукам весь бизнес, оставшийся после севшего в тюрьму криминального лидера. Бывший компаньон Ли – Очагиров, во время встречи в Москве раскрывает новому «Хозяину» всю схему криминального бизнеса в городе. По возвращении в город Очагирова убивают. В городе, после ареста Ли, меняется все руководство ГУВД. Новый генерал привозит с собой двух заместителей, полковников Сечного и Махнова. Буров рад приезду Сечного, потому что когда-то служил под его началом в Чечне. Доверенным лицом «Хозяина» в городе становится адвокат Белецкий, ранее проживающий в этом городе, но долгое время работавший в Москве. Задача «Хозяина» руками Белецкого и его бойцов захватить власть в городе и провернуть многомиллионную сделку по покупке завода, который принадлежит мужу бывшей любовницы Бурова – Жанне. Волки понимают, что столкнулись с очень серьезным и опасным врагом. Если про Ли все знали, кто он такой, то новый заправила преступного бизнеса никому не известен. Все знают, что он есть, но в лицо его никто не видел.
Ближайшие 12-серий Бурову и его команде придется бороться с невидимым врагом. Тем интереснее и запутаннее будет развязка

Все раздачи сериала: http://rutracker.org/forum/tracker.php?f=9&nm=%...+%E2%EE%EB%EA%E8
Сэмпл: http://sendfile.su/1048663http://i66.fastpic.ru/big/2014/1115/f1/51051d5e3a5283390fc79af6608c0df1.gifКачество: SATRip
Формат: AVI
Видео кодек: XviD
Аудио кодек: AC3
Видео: Xvid, 720x400, 25fps,1 800 Kbps,Bits/Pixel 0.174
Аудио: AC3. 48000Hz stereo. 192kbps,2 ch

MI
Общее
Полное имя : C:\БЕЛЫЕ ВОЛКИ 2\01 серия.avi
Формат : AVI
Формат/Информация : Audio Video Interleave
Размер файла : 496 Мбайт
Продолжительность : 47 м.
Общий поток : 1456 Кбит/сек
Программа кодирования : VirtualDubMod 1.5.10.3 | www.virtualdub-fr.org || (build 2550/release)
Библиотека кодирования : VirtualDubMod build 2550/release

Видео
Идентификатор : 0
Формат : MPEG-4 Visual
Профиль формата : Advanced Simple@L5
Параметр BVOP формата : 2
Параметр QPel формата : Нет
Параметр GMC формата : Без точки перехода
Параметр матрицы формата : Default (MPEG)
Идентификатор кодека : XVID
Идентификатор кодека/Подсказка : XviD
Продолжительность : 47 м.
Битрейт : 1254 Кбит/сек
Ширина : 720 пикселей
Высота : 400 пикселей
Соотношение сторон : 16:9
Частота кадров : 25,000 кадров/сек
Цветовое пространство : YUV
Субдискретизация насыщенности : 4:2:0
Битовая глубина : 8 бит
Тип развёртки : Прогрессивная
Метод сжатия : С потерями
Бит/(Пиксели*Кадры) : 0.174
Размер потока : 427 Мбайт (86%)
Библиотека кодирования : XviD 73

Аудио
Идентификатор : 1
Формат : AC-3
Формат/Информация : Audio Coding 3
Расширение режима : CM (complete main)
Параметр Endianness формата : Big
Идентификатор кодека : 2000
Продолжительность : 47 м.
Вид битрейта : Постоянный
Битрейт : 192 Кбит/сек
Каналы : 2 канала
Расположение каналов : Front: L R
Частота : 48,0 КГц
Битовая глубина : 16 бит
Метод сжатия : С потерями
Размер потока : 65,4 Мбайт (13%)
Выравнивание : Разделение по промежуткам
Продолжительность промежутка : 40 мс. (1,00 видеокадр)
Время предзагрузки промежутка : 500 мс.


Внимание! Раздача ведётся путём добавления новых серий
Внимание! Раздача ведётся путём добавления новых серий; при каждом добавлении создётся новый торрент. Чтобы начать докачку новой серии, пользователям необходимо сделать следующее:
(1) остановить скачивание,
(2) удалить старый торрент у себя из клиента (старые серии удалять не надо),
(3) скачать новый торрент и запустить его у себя в клиенте вместо старого, при этом указать клиенту путь в старую папку куда и должно происходить скачивание новых серий.
Ваш клиент при этом должен произвести хеширование (проверку) старой папки (если не производит сам - помогите ему сделать это), и будет докачивать только те серии которых у вас ещё нет. Старые серии при этом не удаляются, а продолжают раздаваться!
Eсли вы уже удалили старые серии, то предотвратить повторную закачку старых серий можно, отжав галочку в соответсвующих местах при запуске нового торрента. По возможности, желательно не удалять старые серии как можно дольше чтобы релизёр не столько продолжал раздавать старые серии, а смог сконцентрироваться на новых.


Скриншоты
http://i64.fastpic.ru/big/2014/1115/13/0c2b4b3d366a07d684b28b3b31b1a413.jpg
http://i65.fastpic.ru/big/2014/1115/e3/91b3ea8aad178e59241d15409f8be2e3.jpg
http://i64.fastpic.ru/big/2014/1115/61/e5dee037c4fbec1301864c926b21db61.jpg
http://i67.fastpic.ru/big/2014/1115/db/5c7db27ffbd1133076618b4f19ed95db.jpg
http://i64.fastpic.ru/big/2014/1115/2e/2101498b0d8db9cba2e1513e6893212e.jpg
http://i63.fastpic.ru/big/2014/1115/f0/25af119a02538415f7234927555089f0.jpg


Добавлена 12 серия. Рекламы нет.
Скриншоты
Похожие файлы
Загрузка / Обновление
КатегорияСериалы RSS лента
Просмотров254 раз (a)
Взят2 раз (a)
Файлы12
Размер5.52 GB (5,929,113,600 байт)
Добавлен
РаздалViKa  (Искать торренты)
Участники
Участники - Загрузка / Обновление
Просматривают Просматривают Загрузка...

-†- ¿? -†-
« Предыдущая - † Страница † - Следующая »

:: Список Комментариев
Нет комментариев.

 Нет комментариев
Вам запрещенно редактировать, создать или удалять комментарии.
shpv© 2007-2014
Страничка сформирована за 0.201 секунд.
Яндекс.Метрика Rambler's Top100