скачать торрент трекер Friends
 
 Главная  •  Торренты  •  Новые релизы  •  Форум  •   •  Персоны кино  •  Правила  •  ЧаВо

Язык интерфейса
Язык интерфейса:


Привет, Гость
[15] из [15]
Введите Логин:
Введите Пароль:
Регистрация
Восстановить Пароль

Линки
АнекдотыБанкоматВсе теги / меткиДополнительные услугиТехподдержка

Главное Меню
 Главная Торренты Релизы за сегодня Персоны кино Запросы / Предложения (3) Правила ЧаВо Проверка BB кодов Топ 10 Архив новостей Прошлые опросы Форматы файлов Группы Последние комментарии Техподдержка

:: Детали раздачи

Любопытная Варвара / Сезон: 2 / Серии: 1-8 из 8 (Роман Барабаш) [2014, Россия, Детектив, комедия, мелодрама, SATRip] :: RuTracker.org

Скачать
Магнет
ПомощьКак скачать раздачу
Поделиться
Теги / Меткидетектив, комедия, мелодрама
Постер
ОписаниеПроизводитель : Россия, ООО "Продюсерский центр ПРО100 ФИЛЬМ"
Жанр: Детектив, комедия, мелодрама
Год выпуска: 2014
Продолжительность: 50 мин.
Cубтитры: нет

Режиссер: Роман Барабаш
В ролях: Елена Яковлева, Виталий Хаев, Андрей Кузичев, Даша Волга, Петр Баранчеев, Рамиля Искандер, Иван Качалин, Дмитрий Никонов, Иван Брэд
Описание: В продолжении истории главная героиня, Варвара Ивановна Слуцкая, переезжает жить к своему возлюбленному - бывшему преподавателю в Академии Контрразведки Вязьмину Геннадию Петровичу, а также получает должность внештатного агента ОВД. К столь значительному повороту событий на «рабочем фронте» причастен запомнившийся всем следователь Иван Болотников – друг семьи Слуцких.Удивительные и курьезные истории ожидают нашу героиню как в личной жизни, так и в профессиональной сфере.Безудержная энергия, врожденное любопытство вкупе с деликатностью пожилого учителя теперь уже не просто личные качества героини, а очевидные «козыри» в борьбе с преступностью.

Доп. информация: Релиз группа http://img23.binimage.org/7d/b4/82/banner144.gif[/img][img]http://s56.radikal.ru/i152/0905/99/5f5d3bf12488.gif[/img][img]http://i038.radikal.ru/1
312/6f/3c3564f00ec6.png
http://static.rutracker.org/smiles/icon_arrow.gif
Все раздачи сериала
http://static.rutracker.org/smiles/icon_arrow.gif
Сэмпл

Качество: SATRip
Формат: AVI
Видео кодек: XviD
Аудио кодек: AC3
Видео: 720x400 (1.80:1), 25 fps, XviD build 50 ~1548 kbps avg, 0.22 bit/pixel
Аудио: 48 kHz, AC3 Dolby Digital, 2/0 (L,R) ch, ~192.00 kbps avg

MI
General
Complete name : Y:\раздачи\Lyubopytnaya.Varvara-2.2014.SATRip.RG.Russkie.serialy.&.Files-x\01.Lyubopytnaya.Varvara-2.2014.SATRip.RG.Russkie.serialy.&.Files-x.avi
Format : AVI
Format/Info : Audio Video Interleave
File size : 550 MiB
Duration : 42mn 30s
Overall bit rate : 1 808 Kbps
Writing application : VirtualDubMod 1.5.10.3 | www.virtualdub-fr.org || (build 2550/release)
Writing library : VirtualDubMod build 2550/release

Video
ID : 0
Format : MPEG-4 Visual
Format profile : Advanced Simple@L5
Format settings, BVOP : Yes
Format settings, QPel : No
Format settings, GMC : No warppoints
Format settings, Matrix : Custom
Codec ID : XVID
Codec ID/Hint : XviD
Duration : 42mn 30s
Bit rate : 1 607 Kbps
Width : 720 pixels
Height : 400 pixels
Display aspect ratio : 16:9
Frame rate : 25.000 fps
Color space : YUV
Chroma subsampling : 4:2:0
Bit depth : 8 bits
Scan type : Progressive
Compression mode : Lossy
Bits/(Pixel*Frame) : 0.223
Stream size : 488 MiB (89%)
Writing library : XviD 73

Audio
ID : 1
Format : AC-3
Format/Info : Audio Coding 3
Mode extension : CM (complete main)
Format settings, Endianness : Big
Codec ID : 2000
Duration : 42mn 30s
Bit rate mode : Constant
Bit rate : 192 Kbps
Channel(s) : 2 channels
Channel positions : Front: L R
Sampling rate : 48.0 KHz
Bit depth : 16 bits
Compression mode : Lossy
Stream size : 58.4 MiB (11%)
Alignment : Split accross interleaves
Interleave, duration : 40 ms (1.00 video frame)
Interleave, preload duration : 500 ms


Внимание! Раздача ведётся путём добавления новых серий!
Внимание! Раздача ведётся путём добавления новых серий
Внимание! Раздача ведётся путём добавления новых серий; при каждом добавлении создётся новый торрент.
Чтобы начать докачку новой серии, пользователям необходимо сделать следующее:
1) остановить скачивание
2) удалить старый торрент у себя из клиента (старые серии удалять не надо)
3) скачать новый торрент и запустить его у себя в клиенте вместо старого, при этом указать клиенту путь в старую папку куда и должно происходить скачивание новых серий.
Ваш клиент при этом должен произвести хеширование (проверку) старой папки (если не производит сам - помогите ему сделать это), и будет докачивать только те серии которых у вас ещё нет. Старые серии при этом не удаляются, а продолжают раздаваться!
Eсли вы уже удалили старые серии, то предотвратить повторную закачку старых серий можно, отжав галочку в соответствовавших местах при запуске нового торрента.


Скриншоты
http://s019.radikal.ru/i624/1411/f2/39546a9e1d93.png
http://s014.radikal.ru/i328/1411/f0/97d02ff4de84.png
http://s019.radikal.ru/i602/1411/8b/7e5ccddc54bf.png
http://s003.radikal.ru/i204/1411/37/8eb74b605b30.png
http://s017.radikal.ru/i401/1411/8e/05312d2a04b1.png
Скриншоты
Похожие файлы
Загрузка / Обновление
КатегорияСериалы RSS лента
Просмотров259 раз (a)
Взят5 раз (a)
Файлы8
Размер4.34 GB (4,662,016,000 байт)
Добавлен
РаздалViKa  (Искать торренты)
Участники
Участники - Загрузка / Обновление
Просматривают Просматривают Загрузка...

-†- ¿? -†-
« Предыдущая - † Страница † - Следующая »

:: Список Комментариев
Нет комментариев.

 Нет комментариев
Вам запрещенно редактировать, создать или удалять комментарии.
shpv© 2007-2014
Страничка сформирована за 2.671 секунд.
Яндекс.Метрика Rambler's Top100