скачать торрент трекер Friends
 
 Главная  •  Торренты  •  Новые релизы  •  Форум  •   •  Персоны кино  •  Правила  •  ЧаВо

Язык интерфейса
Язык интерфейса:


Привет, Гость
[15] из [15]
Введите Логин:
Введите Пароль:
Регистрация
Восстановить Пароль

Линки
АнекдотыБанкоматВсе теги / меткиДополнительные услугиТехподдержка

Главное Меню
 Главная Торренты Релизы за сегодня Персоны кино Запросы / Предложения (3) Правила ЧаВо Проверка BB кодов Топ 10 Архив новостей Прошлые опросы Форматы файлов Группы Последние комментарии Техподдержка

:: Детали раздачи
Торрент раздача является мультитрекерной — учтите, количество раздающих не будет совпадать с количеством участников на сайте (скачивание на клиентской стороне зависит от настроек uTorrent клиент программы, настройки -> Включить DHT, Обмен пирами и Поиск лок-х пиров).
Если висит надпись, пиры по нулям - не бойтесь, возможность скачать повторно торрент раздачу - есть. Попробуйте, в случае отказа - прокоментируйте или нажмите на "Позвать скачавших".

Бывших не бывает / Сезон: 1 / Серии: 1-4 из 4 (Зиновий Ройзман) [2013, Боевик,драма,IPTVRip] :: RuTracker.org

Скачать
Магнет
ПомощьКак скачать раздачу
Поделиться
Теги / Меткибоевик, драма
Постер
ОписаниеГод выпуска: 2013
Производство: Россия http://i63.fastpic.ru/big/2014/0609/38/aa00161537b751d21dac1fc154709f38.gif, Производство студии"ЛЕМАН"
Жанр: Боевик,драма
Продолжительность: 4x ~ 00:46:00
Субтитры: Иврит (вшитые)

Режиссёр: Зиновий Ройзман

В ролях: Сергей Горобченко, Павел Трубинер, Ольга Ломоносова, Юрий Назаров, Ольга Филиппова, Наталья Варнакова, Антон Сёмкин, Дмитрий Быковский-Ромашов, Азиз Бейшеналиев, Геннадий Пачис, Ангелина Добророднова, Николай Быстров, Ника Балина

Описание: В семье Виктора Платонова случилась беда: тяжело ранен сын. Спасти его может только операция стоимостью в 500 тысяч долларов. Таких денег у Платонова нет, однако операцию готов оплатить местный криминальный авторитет. Все, что нужно Виктору — доставить в соседний город некий товар. Выбор исполнителя для этого дела неслучаен: Платонов — бывший сотрудник специального подразделения разведки — «Группа 6»

Все раздачи сериала
Сэмпл

Качество: IPTVRip
Формат: AVI
Видео кодек: XviD
Аудио кодек: AC3
Видео: 720x400 (1.80:1), 25 fps, XviD MPEG-4 ~1458 kbps avg, 0.20 bit/pixel
Аудио: 48 kHz, AC3 Dolby Digital, 2/0 (L,R) ch, ~192 kbpshttp://i61.fastpic.ru/big/2014/0613/6c/1055cc903fa0a70f5dc2078ccbd06f6c.gif

Внимание!

В файле присутствуют деффекты:
1. Картинка иногда сыпется.
2. На пол секунды иногда пропадает звук.
Увы сделать ничего не смог так вещал канал.



MediaInfo
Общее
Полное имя : D:\Byvshih_ne_byvaet_1-4iz4_2013_XviD_IPTVRip\Byvshih_ne_byvaet_1_iz_4_2013_IPTVRip.avi
Формат : AVI
Формат/Информация : Audio Video Interleave
Размер файла : 555 Мбайт
Продолжительность : 46 м.
Общий поток : 1661 Кбит/сек
Программа кодирования : Lavf52.39.1
Библиотека кодирования : VirtualDub build 35491/release

Видео
Идентификатор : 0
Формат : MPEG-4 Visual
Профиль формата : Advanced Simple@L5
Параметр BVOP формата : 2
Параметр QPel формата : Нет
Параметр GMC формата : Без точки перехода
Параметр матрицы формата : Default (H.263)
Режим смешивания : Сжатый битовый поток
Идентификатор кодека : XVID
Идентификатор кодека/Подсказка : XviD
Продолжительность : 46 м.
Битрейт : 1459 Кбит/сек
Ширина : 720 пикселей
Высота : 400 пикселей
Соотношение сторон : 16:9
Частота кадров : 25,000 кадров/сек
Цветовое пространство : YUV
Субдискретизация насыщенности : 4:2:0
Битовая глубина : 8 бит
Тип развёртки : Прогрессивная
Метод сжатия : С потерями
Бит/(Пиксели*Кадры) : 0.203
Размер потока : 488 Мбайт (88%)
Библиотека кодирования : XviD 65

Аудио
Идентификатор : 1
Формат : AC-3
Формат/Информация : Audio Coding 3
Расширение режима : CM (complete main)
Параметр Endianness формата : Big
Идентификатор кодека : 2000
Продолжительность : 46 м.
Вид битрейта : Постоянный
Битрейт : 192 Кбит/сек
Каналы : 2 канала
Расположение каналов : Front: L R
Частота : 48,0 КГц
Битовая глубина : 16 бит
Метод сжатия : С потерями
Размер потока : 64,2 Мбайт (12%)
Выравнивание : Соединение по промежуткам
Продолжительность промежутка : 40 мс. (1,00 видеокадр)
Время предзагрузки промежутка : 512 мс.


Скриншоты
http://i64.fastpic.ru/big/2014/0901/2a/36d53aab815e947964d67ff2c551182a.jpg
http://i68.fastpic.ru/big/2014/0831/45/bca729eb5edf30e34ef0ddc19ad70145.jpg
http://i66.fastpic.ru/big/2014/0831/93/c09793049964e48713a1e9a1744e2393.jpg
http://i66.fastpic.ru/big/2014/0831/d2/d739825facae0871280edbdd3bb90ad2.jpg
http://i68.fastpic.ru/big/2014/0831/0f/cd0130fbd89eaea5566229ceaabc780f.jpg
Скриншоты
Похожие файлы
Загрузка / Обновление
КатегорияСериалы RSS лента
Просмотров248 раз (a)
Взят5 раз (a)
Файлы4
Размер2.17 GB (2,330,009,064 байт)
ТраффикСкачано: 2.17 GB, Отдано: 180.02 MB
Добавлен
РаздалViKa  (Искать торренты)
Участники
Участники - Загрузка / Обновление
Просматривают Просматривают Загрузка...

-†- ¿? -†-
« Предыдущая - † Страница † - Следующая »

:: Список Комментариев
Нет комментариев.

 Нет комментариев
Вам запрещенно редактировать, создать или удалять комментарии.
shpv© 2007-2014
Страничка сформирована за 0.465 секунд.
Яндекс.Метрика Rambler's Top100