скачать торрент трекер Friends
 
 Главная  •  Торренты  •  Новые релизы  •  Форум  •   •  Персоны кино  •  Правила  •  ЧаВо

Язык интерфейса
Язык интерфейса:


Привет, Гость
[15] из [15]
Введите Логин:
Введите Пароль:
Регистрация
Восстановить Пароль

Линки
АнекдотыБанкоматВсе теги / меткиДополнительные услугиТехподдержка

Главное Меню
 Главная Торренты Релизы за сегодня Персоны кино Запросы / Предложения (3) Правила ЧаВо Проверка BB кодов Топ 10 Архив новостей Прошлые опросы Форматы файлов Группы Последние комментарии Техподдержка

:: Детали раздачи
Торрент раздача является мультитрекерной — учтите, количество раздающих не будет совпадать с количеством участников на сайте (скачивание на клиентской стороне зависит от настроек uTorrent клиент программы, настройки -> Включить DHT, Обмен пирами и Поиск лок-х пиров).
Если висит надпись, пиры по нулям - не бойтесь, возможность скачать повторно торрент раздачу - есть. Попробуйте, в случае отказа - прокоментируйте или нажмите на "Позвать скачавших".

Чернобыль: Зона отчуждения / Сезон: 1 / Серии: 8 из 8 (Aндeрc Бaнкe) [2014, Мистический триллер, DVB] :: RuTracker.org

Скачать
Магнет
ПомощьКак скачать раздачу
Поделиться
Теги / Меткимистический триллер
Постер
ОписаниеГод выпуска: 2014
Производство: Россия, Синелаб Продакшн
Жанр: Мистический триллер
Продолжительность: ~ 50 мин серия
Режиссёр: Aндeрc Бaнкe

В ролях: Кристина Казинская, Евгений Стычкин, Валерия Дмитриева, Сергей Романович, Константин Давыдов, Анвар Халилулаев, Илья Щербинин, Илья Ермолов, Михаил Куряев, Андрей Соломонов, Евгения Каверау, Ива Солоницына

Описание: Пятеро молодых людей прыгают в старую «Волгу» и отправляются на поиски вора, часом ранее укравшего из квартиры родителей главного героя восемь миллионов рублей. Грабитель — обычный московский айтишник, — вместо того чтобы залечь на дно, тут же записывает видеоотчет, в котором сообщает, что финальная точка его путешествия — Чернобыльская АЭС и город Припять.

Сэмпл: http://multi-up.com/1006244

Качество: DVB
Формат: MPEG-PS
Видео кодек: MPEG2
Аудио кодек: MP2
Видео: MPEG Video at 1840 Кбит/сек Aspect : 720 x 576 (1.333) at 25.000 fps
Аудио: MPEG Audio at 192 Кбит/сек Infos : 2 канала, 48,0 КГц

MI
Общее
Полное имя : E:\MPEG\Чернобыль. Зона отчуждения.2014.DVB.Doc66\Чернобыль. Зона отчуждения. 01 серия.mpg
Формат : MPEG-PS
Размер файла : 782 Мбайт
Продолжительность : 52 м.
Режим общего битрейта : Переменный
Общий поток : 2073 Кбит/сек
Библиотека кодирования : (c) 1998-2010 Womble Multimedia, Inc. / MPEG Video Wizard DVD 5.0.0.114 (01/2010) / Nov 13 2010

Видео
Идентификатор : 224 (0xE0)
Формат : MPEG Video
Версия формата : Version 2
Профиль формата : Main@Main
Параметр BVOP формата : Да
Параметр матрицы формата : Выборочная
Параметр GOP формата : Variable
Продолжительность : 52 м.
Вид битрейта : Переменный
Битрейт : 1840 Кбит/сек
Максимальный битрейт : 15,0 Мбит/сек
Ширина : 720 пикселей
Высота : 576 пикселей
Соотношение сторон : 4:3
Частота кадров : 25,000 кадров/сек
Стандарт вещания : PAL
Цветовое пространство : YUV
Субдискретизация насыщенности : 4:2:0
Битовая глубина : 8 бит
Тип развёртки : Чересстрочная
Порядок развёртки : Верхнее поле первое
Метод сжатия : С потерями
Бит/(Пиксели*Кадры) : 0.177
Временной код первого кадра : 00:00:00:00
Оригинал временного кода : Group of pictures header
Размер потока : 694 Мбайт (89%)
Закодированный размер потока оригинала : (c) 1998-2010 Womble Multimedia, Inc. / MPEG Video Wizard DVD 5.0.0.114 (01/2010) / Nov 13 2010
Библиотека кодирования : (c) 1998-2010 Womble Multimedia, Inc. / MPEG Video Wizard DVD 5.0.0.114 (01/2010) / Nov 13 2010

Аудио
Идентификатор : 192 (0xC0)
Формат : MPEG Audio
Версия формата : Version 1
Профиль формата : Layer 2
Продолжительность : 52 м.
Вид битрейта : Постоянный
Битрейт : 192 Кбит/сек
Каналы : 2 канала
Частота : 48,0 КГц
Метод сжатия : С потерями
Размер потока : 72,4 Мбайт (9%)


Скриншоты
http://i63.fastpic.ru/thumb/2014/1015/d0/f6bb4ee8cd7b89c4b031199172f7cbd0.jpeg http://i68.fastpic.ru/thumb/2014/1015/c6/400e20854217e903173aa796761aaac6.jpeg http://i63.fastpic.ru/thumb/2014/1015/92/175dd0c9b904110c75d6a5b3da76b492.jpeg http://i63.fastpic.ru/thumb/2014/1015/62/dfce5edcf07255bbe9f6bc8023c80362.jpeg http://i68.fastpic.ru/thumb/2014/1015/4f/68843d394eb4ba5ad4736ad548197d4f.jpeg


Внимание! Раздача ведётся путём добавления новых выпусков
Внимание! Раздача ведётся путём добавления новых серий; при каждом добавлении создаётся новый торрент. Чтобы начать докачку новой серии, пользователям необходимо сделать следующее:
(1) остановить скачивание,
(2) удалить старый торрент у себя из клиента (старые серии удалять не надо),
(3) скачать новый торрент и запустить его у себя в клиенте вместо старого, при этом указать клиенту путь в старую папку куда и должно происходить скачивание новых серий.
Ваш клиент при этом должен произвести хеширование (проверку) старой папки (если не производит сам - помогите ему сделать это), и будет докачивать только те серии которых у вас ещё нет. Старые серии при этом не удаляются, а продолжают раздаваться!
Eсли вы уже удалили старые серии, то предотвратить повторную закачку старых серий можно, сняв галочку в соответствующих местах при запуске нового торрента. По возможности, желательно не удалять старые серии как можно дольше чтобы релизёр не столько продолжал раздавать старые серии, а смог сконцентрироваться на новых.


Интересные факты
Премьера сериала переносилась 3 раза. В начале сообщалось о том, что он должен был выйти на ТНТ в сезоне 2010/2011 годов[1], затем премьеру перенесли на сезон 2012/2013 годов[2], потом был озвучен сезон 2013/2014 годов[3], и только лишь 19 января 2014 года стало известно о том, что премьера состоится в сезоне 2014/2015 годов[4].
6 апреля 2011 года компания Акелла выпустила в России компьютерную игру «Чернобыль. Зона отчуждения» (Chernobyl), представляющую собой шутер от первого лица[5].
Часть съёмок проходила в городе Московский[6].
Журнал «HELLO! Russia» отметил сериал в списке 12 лучших осенних отечественных телепремьер[7].
11 октября 2014 года одно из испытаний в 4-м выпуске 15-го сезона передачи «Битвы экстрасенсов» на ТНТ проходило на месте съёмок сериала «Чернобыль. Зона отчуждения»[8].
Премьерный показ сериала прошёл в Москве 24 сентября 2014 года в кинотеатре «Октябрь» с участием звёзд кино и шоу-бизнеса. Подобные мероприятия также состоятся в 18 городах России: Санкт-Петербурге, Перми, Красноярске, Екатеринбурге, Владивостоке, Кемерово, Новосибирске, Саратове, Иркутске, Ижевске, Омске, Ульяновске, Туле, Барнауле, Томске, Уфе, Челябинске и Воронеже[9].
Впервые в России часть панорам, использованных в сериале, снимались непосредственно в Припяти.
При создании сериала использовалась технология трёхмерной графики CGI.
Часть декораций фильма были с точностью произведены по фотографиям реальных мест в Припяти.
Во время съёмок одного из эпизодов сериала, в гостинице, где проживала съёмочная группа, была обнаружена тарелка из Чернобыля.
Впервые в России сериал был полностью показан в кинотеатре до официальной премьеры на канале ТНТ.
В рамках промоакции сериала, был проведён масштабный многоэтапный флешмоб. В ходе одного из этапов в трёх точках Москвы были размещены инсталляции: перевернутые «Волги», обнесённые предупреждающей лентой и охраняемые людьми в костюмах химзащиты. Последний этап проводится совместно с сервисом Яндекс.Карты.

Обновление до 8-ой серии
Похожие файлы
Загрузка / Обновление
КатегорияСериалы RSS лента
Просмотров347 раз (a)
Взят10 раз (a)
Файлы8
Размер5.54 GB (5,943,879,680 байт)
Добавлен
РаздалViKa  (Искать торренты)
Участники
Участники - Загрузка / Обновление
Просматривают Просматривают Загрузка...

-†- ¿? -†-
« Предыдущая - † Страница † - Следующая »

:: Список Комментариев
Нет комментариев.

 Нет комментариев
Вам запрещенно редактировать, создать или удалять комментарии.
shpv© 2007-2014
Страничка сформирована за 0.139 секунд.
Яндекс.Метрика Rambler's Top100