скачать торрент трекер Friends
 
 Главная  •  Торренты  •  Новые релизы  •  Форум  •   •  Персоны кино  •  Правила  •  ЧаВо

Язык интерфейса
Язык интерфейса:


Привет, Гость
[15] из [15]
Введите Логин:
Введите Пароль:
Регистрация
Восстановить Пароль

Линки
АнекдотыБанкоматВсе теги / меткиДополнительные услугиТехподдержка

Главное Меню
 Главная Торренты Релизы за сегодня Персоны кино Запросы / Предложения (3) Правила ЧаВо Проверка BB кодов Топ 10 Архив новостей Прошлые опросы Форматы файлов Группы Последние комментарии Техподдержка

:: Детали раздачи

Три звезды / Серии: 1-30 из 30 (Мичислав Юзовский, Сергей Лесогоров) [2014, Мелодрама, SATRip] :: RuTracker.org

Скачать
Магнет
ПомощьКак скачать раздачу
Поделиться
Теги / Меткимелодрама
Постер
ОписаниеГод выпуска: 2014
Производство: DixiMedia по заказу НТВ
Жанр: Мелодрама
Продолжительность: ~0:45:00 серия
Субтитры: нет
Режиссёр: Мичислав Юзовский, Сергей Лесогоров
В ролях: Анна Данькова, Иван Колесников, Ярослав Леонов, Максим Туранцев, Владимир Тебенко, Павел Мисаилов, Александр Лырчиков, Всеволод Макаров, Алла Подчуфарова, Лада Чернова, Алина Стеблюк, Анна Кузина (II), Юлия Юрченко, Полина Уварова, Евгений Дакот, Анастасия Немец, Дария Тюрина, Сергей Николаев (VII), Александр Пугачёв (II), Ирина Бероева, Денис Варенов, Ника Балина, Надежда Иванко, Марина Дианова, Денис Давыдов, Евграф Прохоров, Юлия Минаковская, Елена Панджариди, Светлана Фролова (II), Игорь Верста, Алина Хруник, Артем Лысков, Артём Маркарьян, Екатерина Мадалинская, Александра Булычёва

Описание: Брат и сестра Белянкины с детства недолюбливали друг друга. Они росли в неполной семье, вечно и во всем соревновались и вечно были всем недовольны. Сейчас Славе 31 год, он образованный и неглупый, однако, не найдя своего места под солнцем, живет одним днём. Марина, старшая сестра, страдает комплексом «ранней звезды». В 20 лет она была ведущей на одном из первых музыкальных каналов, ее узнавала вся страна. Сейчас ей 36, на телевидении лет 15 она уже никому не нужна. Марина работает где придется, продолжая мечтать о голубом экране.
Вдруг Белянкины получают известие о трагической гибели отца, который бросил их много лет назад. Так как с ним в аварии погибла и его новая жена, а завещания не было, Слава и Марина оказываются единственными наследниками и получают под своё управление небольшую гостиницу в одном из районов Москвы.
Первое желание брата и сестры - продать бизнес и разделить деньги - тут же разбивается вдребезги, так как выясняется, что есть и третий наследник. У их отца остался ещё один сын от нового брака, 15-ти летний паренек по имени Макс. Мало того что Слава и Марина должны управлять гостиницей до того момента, пока Максу не исполнится 18 лет, они ещё и должны стать опекунами мальчика. И каким-то загадочным образом три звезды этой гостиницы объединяют судьбы троих членов одной, давно разрушенной семьи.
Доп. информация: Релиз группа http://img23.binimage.org/7d/b4/82/banner144.gif[/img][img]http://s56.radikal.ru/i152/0905/99/5f5d3bf12488.gif[/img][img]http://i038.radikal.ru/1
312/6f/3c3564f00ec6.png
http://static.rutracker.org/smiles/icon_arrow.gif
Все раздачи сериала
http://static.rutracker.org/smiles/icon_arrow.gif
Сэмпл

Качество: SATRip
Формат: AVI
Видео кодек: XviD
Аудио кодек: AC3
Видео: 720x400 (1.80:1), 25 fps, XviD build 50 ~1500 kbps avg, 0.22 bit/pixel
Аудио: 48 kHz, AC3 Dolby Digital, 2/0 (L,R) ch, ~192.00 kbps avg

MI
General
Complete name : Z:\раздачи\Tri.zvezdy.2014.XviD.SATRip.RG.Russkie.serialy.&.Files-x\Tri.zvezdy.(01.seriya).2014.XviD.SATRip.RG.Russkie.serialy.&.Files-x.avi
Format : AVI
Format/Info : Audio Video Interleave
File size : 550 MiB
Duration : 45mn 8s
Overall bit rate : 1 705 Kbps
Writing application : VirtualDubMod 1.5.10.3 | www.virtualdub-fr.org || (build 2550/release)
Writing library : VirtualDubMod build 2550/release

Video
ID : 0
Format : MPEG-4 Visual
Format profile : Advanced Simple@L5
Format settings, BVOP : 1
Format settings, QPel : No
Format settings, GMC : No warppoints
Format settings, Matrix : Default (H.263)
Codec ID : XVID
Codec ID/Hint : XviD
Duration : 45mn 8s
Bit rate : 1 503 Kbps
Width : 720 pixels
Height : 400 pixels
Display aspect ratio : 16:9
Frame rate : 25.000 fps
Color space : YUV
Chroma subsampling : 4:2:0
Bit depth : 8 bits
Scan type : Progressive
Compression mode : Lossy
Bits/(Pixel*Frame) : 0.209
Stream size : 485 MiB (88%)
Writing library : XviD 1.2.1 (UTC 2008-12-04)

Audio
ID : 1
Format : AC-3
Format/Info : Audio Coding 3
Mode extension : CM (complete main)
Format settings, Endianness : Big
Codec ID : 2000
Duration : 45mn 8s
Bit rate mode : Constant
Bit rate : 192 Kbps
Channel(s) : 2 channels
Channel positions : Front: L R
Sampling rate : 48.0 KHz
Bit depth : 16 bits
Compression mode : Lossy
Stream size : 62.0 MiB (11%)
Alignment : Split accross interleaves
Interleave, duration : 40 ms (1.00 video frame)
Interleave, preload duration : 500 ms


Скриншоты
http://s58.radikal.ru/i159/1407/3e/675b77fdd139.jpg
http://i049.radikal.ru/1407/d2/6ad1c061a265.jpg
http://i047.radikal.ru/1407/16/e49f395bfca3.jpg
http://s016.radikal.ru/i336/1407/80/67d4ae9a82d4.jpg



Сравнение с украинским релизом
http://screenshotcomparison.com/comparison/85569/picture:2
Скриншоты
Похожие файлы
Загрузка / Обновление
КатегорияСериалы RSS лента
Просмотров227 раз (a)
Взят0 раз (a)
Файлы30
Размер16.12 GB (17,311,324,732 байт)
Добавлен
РаздалViKa  (Искать торренты)
Участники
Участники - Загрузка / Обновление
Просматривают Просматривают Загрузка...

-†- ¿? -†-
« Предыдущая - † Страница † - Следующая »

:: Список Комментариев
Нет комментариев.

 Нет комментариев
Вам запрещенно редактировать, создать или удалять комментарии.
shpv© 2007-2014
Страничка сформирована за 0.343 секунд.
Яндекс.Метрика Rambler's Top100